<?xml version="1.0" standalone="no"?>
<!DOCTYPE svg PUBLIC "-//W3C//DTD SVG 1.1//EN" "http://www.w3.org/Graphics/SVG/1.1/DTD/svg11.dtd" >
<svg>
<metadata>
Created by FontForge 20090914 at Fri Jan  9 15:47:21 2015
 By www-data
Copyright (c) 2013 by Misti's Fonts (Misti Hammers). All rights reserved.
</metadata>
<defs>
<font id="GirlsHaveManySecrets" horiz-adv-x="417" >
  <font-face 
    font-family="Girls Have Many Secrets"
    font-weight="400"
    font-stretch="normal"
    units-per-em="1000"
    panose-1="0 0 0 0 0 0 0 0 0 0"
    ascent="750"
    descent="-250"
    x-height="496.003"
    cap-height="698.001"
    bbox="3.88879 -254 1018.1 917.405"
    underline-thickness="50"
    underline-position="-50"
    unicode-range="U+0020-U+20AC"
  />
<missing-glyph horiz-adv-x="294" 
 />
    <glyph glyph-name=".notdef" horiz-adv-x="294" 
 />
    <glyph glyph-name="space" unicode=" " horiz-adv-x="294" 
 />
    <glyph glyph-name="space" unicode="&#xa0;" horiz-adv-x="294" 
 />
    <glyph glyph-name="exclam" unicode="!" horiz-adv-x="152" 
d="M75 167c-12 0 -20.9971 5.6709 -26.9971 17.0039c-2.66699 5.33301 -5.33398 13.166 -8.00098 23.499s-4.83398 25.666 -6.50098 45.999s-2.66699 47 -3 80s0.5 74.833 2.5 125.5c0.666992 27.333 1.83398 53.666 3.50098 78.999s3 47.833 4 67.5s2 35.5 3 47.5l1.5 18
c1.33301 8.66699 5 15.667 11 21s13.333 7.66602 22 6.99902c8 -1.33301 14.667 -5 20 -11s7.66602 -13.333 6.99902 -22l-1.5 -18c-1 -12 -2 -27.667 -3 -47s-2.33301 -41.5 -4 -66.5s-2.83398 -50.833 -3.50098 -77.5c-2 -49.333 -2.83301 -89.5 -2.5 -120.5
s1.16602 -55.5 2.49902 -73.5s2.83301 -30.833 4.5 -38.5s3.16699 -12.5 4.5 -14.5c3.33301 -7.33301 3.83301 -14.833 1.5 -22.5s-7.16602 -13.5 -14.499 -17.5c-5.33301 -2 -10 -3 -14 -3zM78.0029 126.004c16 0 29.833 -6.16699 41.5 -18.5s17.5 -27.5 17.5 -45.5
c0 -17.333 -5.83301 -32.333 -17.5 -45s-25.5 -19 -41.5 -19s-29.667 6.33301 -41 19s-17 27.667 -17 45c0 18 5.66699 33.167 17 45.5s25 18.5 41 18.5z" />
    <glyph glyph-name="quotedbl" unicode="&#x22;" horiz-adv-x="241" 
d="M60 378h-1.99902c-8 0.666992 -14.833 4 -20.5 10s-8.16699 13.333 -7.5 22c0.666992 3.33301 1 6.5 1 9.5s0.333008 6.16699 1 9.5c2 27.333 3.5 54.5 4.5 81.5s-0.833008 56.833 -5.5 89.5c-1.33301 8 0.5 15.333 5.5 22s11.5 10.667 19.5 12s15.333 -0.5 22 -5.5
s10.667 -11.833 12 -20.5c5.33301 -36 7.5 -68.667 6.5 -98s-2.83301 -58 -5.5 -86c0 -3.33301 -0.166992 -6.33301 -0.5 -9s-0.5 -5.66699 -0.5 -9c-0.666992 -8 -3.83398 -14.667 -9.50098 -20s-12.5 -8 -20.5 -8zM181.001 378c-8 0 -15 2.83301 -21 8.5
s-9 12.834 -9 21.501v178c0 8.66699 3 15.834 9 21.501s13 8.5 21 8.5c8.66699 0 15.834 -2.83301 21.501 -8.5s8.5 -12.834 8.5 -21.501v-178c0 -8.66699 -2.83301 -15.834 -8.5 -21.501s-12.834 -8.5 -21.501 -8.5z" />
    <glyph glyph-name="numbersign" unicode="#" horiz-adv-x="547" 
d="M507 397c8.66699 0 15.8428 -2.99609 21.5098 -8.99609s8.5 -13 8.5 -21c0 -8.66699 -3 -15.834 -9 -21.501s-13 -8.5 -21 -8.5h-1c-18.667 0.666992 -37.334 1.16699 -56.001 1.5s-37.334 1.16602 -56.001 2.49902l-6 -75c8 -1.33301 16.167 -2.16602 24.5 -2.49902
s16.833 -0.833008 25.5 -1.5c8 -1.33301 14.667 -5 20 -11s7.66602 -13.333 6.99902 -22c-0.666992 -7.33301 -3.83398 -13.666 -9.50098 -18.999s-12.5 -8 -20.5 -8h-2l-25 2l-25 2c-2 -28 -4.16699 -56.167 -6.5 -84.5l-7.5 -87.5
c-0.666992 -8 -3.83398 -14.667 -9.50098 -20s-12.5 -8 -20.5 -8h-2c-8 0.666992 -14.833 4.16699 -20.5 10.5s-7.83398 13.5 -6.50098 21.5c2 30 4.16699 59.333 6.5 88s4.5 57 6.5 85c-11.333 1.33301 -23 2.16602 -35 2.49902s-23.667 1.16602 -35 2.49902
c-12.667 1.33301 -25 2.33301 -37 3s-24.333 1.66699 -37 3c-2 -32.667 -4.16699 -65.167 -6.5 -97.5s-4.5 -65.166 -6.5 -98.499c-0.666992 -7.33301 -3.83398 -13.833 -9.50098 -19.5s-12.5 -8.5 -20.5 -8.5c-0.666992 0 -1 0.166992 -1 0.5s-0.333008 0.5 -1 0.5
c-8.66699 0.666992 -15.667 4 -21 10s-7.66602 13.333 -6.99902 22c2.66699 32.667 5 65.167 7 97.5s4.33301 65.166 7 98.499c-11.333 1.33301 -22.166 2.16602 -32.499 2.49902s-20.833 1.16602 -31.5 2.49902c-8.66699 0.666992 -15.667 4.16699 -21 10.5
s-7.66602 13.5 -6.99902 21.5c1.33301 8.66699 5 15.667 11 21s13.333 7.66602 22 6.99902c10.667 -1.33301 21.167 -2.33301 31.5 -3l31.5 -2c1.33301 12.667 2.16602 25.334 2.49902 38.001s1.16602 25.334 2.49902 38.001l-87 12
c-8.66699 1.33301 -15.334 5.33301 -20.001 12s-6.33398 14 -5.00098 22c1.33301 8.66699 5.16602 15.5 11.499 20.5s13.833 6.83301 22.5 5.5c13.333 -2.66699 27 -4.83398 41 -6.50098s27.667 -3.5 41 -5.5l6 81.5l6 81.5l3 47c0.666992 8 4 14.833 10 20.5
s13.333 8.16699 22 7.5c8 -0.666992 14.833 -4.16699 20.5 -10.5s8.16699 -13.5 7.5 -21.5l-4 -47c-1.33301 -28 -3 -55.5 -5 -82.5l-6 -82.5c24 -3.33301 48.167 -6 72.5 -8s48.833 -3.66699 73.5 -5c3.33301 40 6.33301 81.833 9 125.5l9 140.5
c0.666992 8.66699 4.16699 15.667 10.5 21s13.5 7.66602 21.5 6.99902c8.66699 -0.666992 15.667 -4 21 -10s7.66602 -13 6.99902 -21l-9 -141c-2.66699 -43.333 -5.66699 -85 -9 -125c18 -1.33301 36 -2.16602 54 -2.49902s36 -0.833008 54 -1.5zM328.009 270.004
c1.33301 12.667 2.33301 25 3 37s1.66699 24.333 3 37l-73 6c-24 2 -48 4.33301 -72 7c-1.33301 -12.667 -2.33301 -25.167 -3 -37.5l-2 -37.5c12 -1.33301 24.167 -2.33301 36.5 -3s24.833 -1.66699 37.5 -3c11.333 -1.33301 23 -2.33301 35 -3s23.667 -1.66699 35 -3z" />
    <glyph glyph-name="dollar" unicode="$" horiz-adv-x="404" 
d="M199 -2c-18.667 0 -36.999 2.16602 -54.999 6.49902s-34.667 10.833 -50 19.5c-43.333 24 -67.666 58 -72.999 102c-1.33301 8 0.666992 15.167 6 21.5s12 10.166 20 11.499c8.66699 1.33301 16.167 -0.5 22.5 -5.5s10.166 -11.833 11.499 -20.5
c1.33301 -13.333 6.16602 -24.833 14.499 -34.5s18.833 -17.667 31.5 -24s26.5 -10.833 41.5 -13.5s30.167 -3.33398 45.5 -2.00098c13.333 0.666992 26.5 3.33398 39.5 8.00098s24.5 11 34.5 19s18 18.167 24 30.5s8.66699 27.166 8 44.499
c-1.33301 19.333 -5.5 36 -12.5 50s-16.167 26.667 -27.5 38s-24.333 21.666 -39 30.999l-46 28c-15.333 8.66699 -30.666 17.834 -45.999 27.501s-29.833 20.834 -43.5 33.501s-25.834 26.834 -36.501 42.501s-18.334 34.167 -23.001 55.5
c-5.33301 24.667 -5.33301 49.5 0 74.5s16.333 48.833 33 71.5c14.667 20 32.167 37.167 52.5 51.5s41.5 24.166 63.5 29.499c36.667 8.66699 70.667 4.33398 102 -12.999c32.667 -20.667 55 -54 67 -100c2 -8 1 -15.667 -3 -23s-10 -12 -18 -14s-15.667 -0.833008 -23 3.5
s-12 10.5 -14 18.5c-4.66699 18 -10.834 32.167 -18.501 42.5s-15.834 17.833 -24.501 22.5s-17.667 7 -27 7s-18 -1 -26 -3c-15.333 -4 -30.333 -11 -45 -21s-27.167 -22 -37.5 -36s-17.833 -29.5 -22.5 -46.5s-5 -33.833 -1 -50.5
c3.33301 -14.667 8.83301 -27.667 16.5 -39s17 -21.666 28 -30.999s23 -18.166 36 -26.499s26.833 -16.5 41.5 -24.5l51.5 -32.5c17 -11 32.833 -23.833 47.5 -38.5c34 -34.667 52.333 -76.334 55 -125.001c1.33301 -24 -2.16699 -46.167 -10.5 -66.5
s-21.166 -38.166 -38.499 -53.499c-14 -12.667 -30.667 -22.834 -50 -30.501s-40 -12.5 -62 -14.5c-3.33301 0 -6.66602 -0.166992 -9.99902 -0.5s-6.66602 -0.5 -9.99902 -0.5zM169.001 649.999l-0.00292969 18.998c0 1.33301 0.333008 2 1 2s1.16699 1.83301 1.5 5.5
l2.5 28.5c1.33301 8 5 14.833 11 20.5s13 8.16699 21 7.5s14.833 -4.16699 20.5 -10.5s8.16699 -13.5 7.5 -21.5c-1.33301 -22 -2.5 -53.333 -3.5 -94s-1.66699 -85.667 -2 -135s-0.5 -100.166 -0.5 -152.499s0.166992 -101.333 0.5 -147s0.833008 -85.5 1.5 -119.5
s1.33398 -56.667 2.00098 -68c0.666992 -8.66699 -1.66602 -16 -6.99902 -22s-12 -9.33301 -20 -10c-8.66699 -0.666992 -16 1.83301 -22 7.5s-9.33301 12.5 -10 20.5c0 4.66699 -0.166992 17.334 -0.5 38.001s-0.666016 46 -0.999023 76s-0.5 63.667 -0.5 101
s-0.166992 75.5 -0.5 114.5s-0.5 77.333 -0.5 115s-0.166992 72 -0.5 103s-0.5 57.333 -0.5 79v42.5z" />
    <glyph glyph-name="uni0025" unicode="%" horiz-adv-x="607" 
d="M155 341l-5.99707 -0.00195312c-21.333 0.666992 -41.666 7 -60.999 19c-16.667 10.667 -30.334 24.667 -41.001 42c-18.667 30.667 -27.334 68.334 -26.001 113.001c0.666992 21.333 3.66699 42.333 9 63s12.666 39.334 21.999 56.001c24.667 42 56.667 63 96 63h1
c19.333 0 37.5 -6 54.5 -18s31.833 -29.333 44.5 -52c9.33301 -18.667 16.666 -39 21.999 -61s8 -44.667 8 -68c0 -48 -11 -86.167 -33 -114.5s-52 -42.5 -90 -42.5zM148.003 636.998c-8.66699 0 -17 -3.33105 -25 -9.99805s-15 -15.667 -21 -27s-11 -24.5 -15 -39.5
s-6 -30.833 -6 -47.5c0 -4.66699 0.333008 -12.834 1 -24.501s3.33398 -23.834 8.00098 -36.501s11.834 -24.167 21.501 -34.5s23.167 -15.833 40.5 -16.5h3c14.667 0 26.167 4 34.5 12s14.666 17.333 18.999 28s7 21.5 8 32.5s1.5 19.167 1.5 24.5c0 18 -2 35.333 -6 52
s-9.16699 31.5 -15.5 44.5s-13.833 23.333 -22.5 31s-17.334 11.5 -26.001 11.5zM165.003 -3c-4 0 -8 0.999023 -12 2.99902c-7.33301 3.33301 -12.5 8.83301 -15.5 16.5s-2.83301 15.5 0.5 23.5l63 136.5l65.5 148l69.5 163.5l75 183
c3.33301 7.33301 8.83301 12.833 16.5 16.5s15.167 3.83398 22.5 0.500977c8 -3.33301 13.667 -8.83301 17 -16.5s3.33301 -15.167 0 -22.5l-75.5 -184l-70.5 -164l-66 -149l-63 -138c-5.33301 -11.333 -14.333 -17 -27 -17zM464.003 2.99902l-6 0.00390625
c-44 2 -77.667 20.333 -101 55c-9.33301 13.333 -16.5 29.166 -21.5 47.499s-7.16699 37.5 -6.5 57.5s3.66699 39.667 9 59s13 36.666 23 51.999c24.667 38.667 56.667 58 96 58h1c20 0 38.167 -5.33301 54.5 -16s30 -24.834 41 -42.501s19.5 -37.334 25.5 -59.001
s9 -43.5 9 -65.5c0 -39.333 -9.33301 -72 -28 -98c-22 -32 -54 -48 -96 -48zM457.003 272.003c-10 0 -18.999 -3.33691 -26.999 -10.0039s-15 -15.167 -21 -25.5s-10.833 -22.166 -14.5 -35.499s-5.5 -26.666 -5.5 -39.999c0 -5.33301 0.5 -13.333 1.5 -24
s3.83301 -21.334 8.5 -32.001s11.834 -20.167 21.501 -28.5s23.167 -12.833 40.5 -13.5h3c14.667 0 26.167 3.33301 34.5 10s14.666 14.5 18.999 23.5s7.16602 18.333 8.49902 28s2 17.834 2 24.501c0 14.667 -1.83301 29.334 -5.5 44.001s-8.66699 27.834 -15 39.501
s-13.833 21.167 -22.5 28.5s-18 11 -28 11z" />
    <glyph glyph-name="ampersand" unicode="&#x26;" horiz-adv-x="446" 
d="M111 2c-20 0 -38.666 7.66992 -55.999 23.0029c-17.333 16.667 -26.666 42 -27.999 76c-0.666992 12.667 0 26.5 2 41.5s5 32.167 9 51.5c7.33301 33.333 17.166 68.5 29.499 105.5l35.5 107.5l4 11.5l4 11.5c-15.333 27.333 -27.333 50.833 -36 70.5
s-15.334 36.334 -20.001 50.001s-7.5 25 -8.5 34s-1.5 16.5 -1.5 22.5c2 28.667 8.33301 49.5 19 62.5s20.334 21.5 29.001 25.5c11.333 5.33301 23.333 7.5 36 6.5s24.667 -5.5 36 -13.5c16.667 -10.667 29 -26 37 -46c9.33301 -20.667 13 -43.334 11 -68.001
c-1.33301 -16 -5.33301 -35.833 -12 -59.5s-14.667 -49.834 -24 -78.501c10.667 -19.333 23.167 -40.666 37.5 -63.999l48.5 -78c5.33301 -7.33301 9.66602 -14 12.999 -20l13 25.5c4 7.66699 7.33301 14.5 10 20.5c2.66699 7.33301 5.33398 13.666 8.00098 18.999
c3.33301 7.33301 8.83301 12.666 16.5 15.999s15.167 3.33301 22.5 0s12.666 -8.83301 15.999 -16.5s3.33301 -15.167 0 -22.5c-0.666992 -1.33301 -5.16699 -11.5 -13.5 -30.5s-19.833 -41.833 -34.5 -68.5l45 -65.5l36.5 -53l25 -35.5l9.5 -13
c5.33301 -6.66699 7.33301 -14 6 -22s-5.33301 -14.667 -12 -20c-7.33301 -4.66699 -14.833 -6.33398 -22.5 -5.00098s-14.167 5.33301 -19.5 12l-8 11l-21.5 30l-31.5 45l-39 57c-55.333 -92.667 -106.333 -144 -153 -154c-3.33301 -0.666992 -6.33301 -1.16699 -9 -1.5
s-5.66699 -0.5 -9 -0.5zM151.001 361.003l-31 -91.999c-10 -30.667 -18 -60 -24 -88c-4.66699 -22 -7.5 -40 -8.5 -54s-1.16699 -25.167 -0.5 -33.5s2 -14.333 4 -18s3.66699 -5.83398 5 -6.50098c6.66699 -6 13.334 -8 20.001 -6
c3.33301 0.666992 8.5 2.83398 15.5 6.50098s15.5 10.5 25.5 20.5s21.667 24 35 42s28.666 41.667 45.999 71c1.33301 1.33301 2.33301 3 3 5s1.66699 3.66699 3 5l-15.5 24l-15.5 24l-33.5 52.5c-10.333 16.333 -19.833 32.166 -28.5 47.499zM122.001 642.004
c-1.33301 0 -2.33203 -0.334961 -2.99902 -1.00195c-2.66699 -1.33301 -5.33398 -5 -8.00098 -11s-4.66699 -15 -6 -27c-0.666992 -4 0.666016 -13 3.99902 -27s12.666 -36.333 27.999 -67c4.66699 14.667 8.33398 27.834 11.001 39.501s4.33398 21.167 5.00098 28.5
c1.33301 16.667 -0.5 30.167 -5.5 40.5s-10.167 17.5 -15.5 21.5c-1.33301 0.666992 -2.83301 1.33398 -4.5 2.00098s-3.5 1 -5.5 1z" />
    <glyph glyph-name="quotesingle" unicode="'" horiz-adv-x="119" 
d="M58 360l-1.99902 -0.000976562c-8 0.666992 -14.833 4 -20.5 10s-8.16699 13.333 -7.5 22c0.666992 3.33301 1.16699 6.5 1.5 9.5s0.5 6.16699 0.5 9.5c-0.666992 29.333 -0.5 61.333 0.5 96s0.5 67.334 -1.5 98.001c-1.33301 8 0.5 15.333 5.5 22s11.5 10.667 19.5 12
s15.5 -0.5 22.5 -5.5s10.833 -11.833 11.5 -20.5c3.33301 -36 4.5 -72.5 3.5 -109.5s-1.83301 -69.5 -2.5 -97.5c0 -3.33301 -0.166992 -6.33301 -0.5 -9s-0.5 -5.66699 -0.5 -9c-0.666992 -8 -3.83398 -14.667 -9.50098 -20s-12.5 -8 -20.5 -8z" />
    <glyph glyph-name="parenleft" unicode="(" horiz-adv-x="332" 
d="M219 -167c-10 0 -17.666 3.66602 -22.999 10.999c-68.667 82.667 -116.334 160.5 -143.001 233.5s-33.667 144.833 -21 215.5c5.33301 32 14.833 63.833 28.5 95.5s31.167 64.834 52.5 99.501c17.333 28 38 57.5 62 88.5s53.333 66.5 88 106.5
c5.33301 6.66699 12.166 10.167 20.499 10.5s15.5 -2.16699 21.5 -7.5c6.66699 -5.33301 10.167 -12.166 10.5 -20.499s-2.16699 -15.5 -7.5 -21.5l-79.5 -96.5c-24.333 -31 -45.833 -61.333 -64.5 -91s-34.334 -58.834 -47.001 -87.501s-21.334 -57.334 -26.001 -86.001
c-11.333 -62 -4.66602 -125.333 20.001 -190s68.334 -134.667 131.001 -210c5.33301 -6.66699 7.5 -14.167 6.5 -22.5s-4.5 -15.166 -10.5 -20.499c-7.33301 -4.66699 -13.666 -7 -18.999 -7z" />
    <glyph glyph-name="parenright" unicode=")" horiz-adv-x="313" 
d="M97 -189c-6.66699 1.33301 -11.333 2.66895 -14 4.00195c-7.33301 4.66699 -12 11 -14 19s-0.666992 15.667 4 23c31.333 50.667 58 97.167 80 139.5s39.833 81.5 53.5 117.5s23 69.167 28 99.5s6.5 59.166 4.5 86.499c-2.66699 28.667 -9.66699 56.5 -21 83.5
s-26.166 53.667 -44.499 80s-39.833 53 -64.5 80s-52 54.5 -82 82.5c-6 5.33301 -9.16699 12.166 -9.5 20.499s2.5 15.5 8.5 21.5c5.33301 6 12.166 9.16699 20.499 9.5s15.5 -2.5 21.5 -8.5c38 -36 70 -68.333 96 -97s48 -56.667 66 -84c40 -61.333 63 -122.333 69 -183
c2.66699 -32 1.16699 -65.333 -4.5 -100s-16.167 -71.667 -31.5 -111c-13.333 -38 -31.333 -78.667 -54 -122s-51 -92.333 -85 -147c-3.33301 -4.66699 -7.33301 -8.16699 -12 -10.5s-9.66699 -3.5 -15 -3.5z" />
    <glyph glyph-name="asterisk" unicode="*" horiz-adv-x="297" 
d="M265 452c7.33301 -4.66699 11.999 -10.835 13.999 -18.502s0.666992 -15.167 -4 -22.5c-6 -9.33301 -14.667 -14 -26 -14c-5.33301 0 -10.333 1.33301 -15 4l-69 42v-51c0 -8.66699 -2.83301 -15.834 -8.5 -21.501s-12.834 -8.5 -21.501 -8.5c-8 0 -15 2.83301 -21 8.5
s-9 12.834 -9 21.501v27l-35 -30c-4.66699 -4.66699 -11 -7 -19 -7c-9.33301 0 -17 3.33301 -23 10c-5.33301 6.66699 -7.66602 14 -6.99902 22s4 14.667 10 20l62 54l-53 32c-7.33301 4.66699 -11.833 10.834 -13.5 18.501s-0.5 15.167 3.5 22.5
c4.66699 7.33301 11 12 19 14s15.667 0.666992 23 -4l33 -21v50c0 8.66699 3 15.834 9 21.501s13 8.5 21 8.5c8.66699 0 15.834 -2.83301 21.501 -8.5s8.5 -12.834 8.5 -21.501v-50l45 38c6.66699 5.33301 14 7.83301 22 7.5s14.667 -3.83301 20 -10.5
c5.33301 -6 7.83301 -13.167 7.5 -21.5s-3.83301 -15.166 -10.5 -20.499l-55 -47l71 -44v0z" />
    <glyph glyph-name="plus" unicode="+" horiz-adv-x="388" 
d="M166 479c0.666992 8 4.00098 15.001 10.001 21.001s13 8.66699 21 8s14.833 -4 20.5 -10s8.5 -13 8.5 -21c-1.33301 -58.667 -0.5 -113.5 2.5 -164.5s4.16699 -99.167 3.5 -144.5c0 -8.66699 -2.33301 -16 -7 -22s-11 -9.66699 -19 -11
c-8.66699 -0.666992 -16.334 1.66602 -23.001 6.99902s-10 12 -10 20zM33.001 281.001c-8 1.33301 -14.833 5.00195 -20.5 11.002s-8.16699 13 -7.5 21s4.16699 14.833 10.5 20.5s13.5 8.16699 21.5 7.5c62 -2 118.833 -1 170.5 3s99.5 4.66699 143.5 2
c8.66699 -0.666992 16 -3.33398 22 -8.00098s9.33301 -11 10 -19c0.666992 -8.66699 -1.83301 -16.334 -7.5 -23.001s-12.5 -9.66699 -20.5 -9z" />
    <glyph glyph-name="comma" unicode="," horiz-adv-x="141" 
d="M75 -151c-7.33301 0 -14.3311 2.66992 -20.998 8.00293c-6 5.33301 -9.16699 12.166 -9.5 20.499s2.5 15.5 8.5 21.5c7.33301 10 10.666 22 9.99902 36c-1.33301 11.333 -5 22.666 -11 33.999s-14 20.666 -24 27.999c-6.66699 5.33301 -10.5 12 -11.5 20
s1.16699 15.333 6.5 22s11.833 10.5 19.5 11.5s15.167 -1.16699 22.5 -6.5c16.667 -12.667 30 -28.167 40 -46.5s15.667 -37.5 17 -57.5c3.33301 -33.333 -5.33398 -60.333 -26.001 -81c-4.66699 -6.66699 -11.667 -10 -21 -10z" />
    <glyph glyph-name="hyphen" unicode="-" horiz-adv-x="307" 
d="M112 245l-19.002 -0.000976562c-1.33301 0 -2 0.333008 -2 1s-1.83301 1.16699 -5.5 1.5l-28.5 2.5c-8 1.33301 -14.833 5 -20.5 11s-8.16699 13 -7.5 21s4.16699 14.833 10.5 20.5s13.5 8.16699 21.5 7.5l75 -4.5c16.667 -1 30.334 -1.5 41.001 -1.5
s20.5 0.333008 29.5 1l39.5 3c8.66699 0.666992 16 -1.66602 22 -6.99902s9.33301 -12 10 -20c0.666992 -8.66699 -1.83301 -16 -7.5 -22s-12.5 -9.33301 -20.5 -10c-20 -1.33301 -41.167 -2.33301 -63.5 -3s-47.166 -1 -74.499 -1z" />
    <glyph glyph-name="period" unicode="." horiz-adv-x="148" 
d="M41 19c-5.33301 4 -9.16602 8.66699 -11.499 14s-4.16602 11.333 -5.49902 18c-0.666992 14 3.5 26.167 12.5 36.5s20.5 15.833 34.5 16.5h4c6 0 11.833 -0.833008 17.5 -2.5s10.5 -5.16699 14.5 -10.5c5.33301 -4 9.16602 -8.66699 11.499 -14
s4.16602 -11.333 5.49902 -18c1.33301 -14 -2.33398 -26.167 -11.001 -36.5s-20 -15.833 -34 -16.5h-4c-13.333 0 -24.666 4.33301 -33.999 13z" />
    <glyph glyph-name="slash" unicode="/" horiz-adv-x="297" 
d="M37 -2c-4.66699 0 -8.33203 1.00195 -10.999 3.00195c-8 3.33301 -13.667 8.66602 -17 15.999s-3.33301 15 0 23c38.667 96 76 195.833 112 299.5s72.667 216.167 110 337.5c2.66699 8 7.66699 14 15 18s15 4.66699 23 2s13.833 -7.66699 17.5 -15
s4.5 -14.666 2.5 -21.999c-37.333 -122.667 -74.333 -236.334 -111 -341.001s-74.334 -205.334 -113.001 -302.001c-2.66699 -5.33301 -6.5 -9.83301 -11.5 -13.5s-10.5 -5.5 -16.5 -5.5z" />
    <glyph glyph-name="zero" unicode="0" horiz-adv-x="570" 
d="M266 2c-32 0 -61 5.33398 -87 16.001c-25.333 11.333 -47.666 27 -66.999 47c-30 30 -52.667 69.333 -68 118c-14.667 45.333 -21.334 93.666 -20.001 144.999c0.666992 46 6.83398 90.667 18.501 134s27.834 82 48.501 116c22.667 37.333 49.667 66.666 81 87.999
c34.667 24 73 36 115 36c1.33301 0 2.83301 -0.166992 4.5 -0.5s3.16699 -0.5 4.5 -0.5c60.667 -2 113 -27 157 -75c32 -35.333 56.333 -80.666 73 -135.999c7.33301 -25.333 12.666 -52 15.999 -80s4.33301 -56 3 -84c-2 -42 -9 -81.5 -21 -118.5
s-28.333 -69.833 -49 -98.5c-24 -34 -52.833 -60 -86.5 -78s-70.834 -27.667 -111.501 -29h-11zM287 642.001c-18 0 -34.5 -3.00293 -49.5 -9.00293s-28.5 -13.5 -40.5 -22.5s-22.5 -19.167 -31.5 -30.5s-16.833 -22.333 -23.5 -33c-18 -30 -32 -64 -42 -102
s-15.333 -77 -16 -117c-0.666992 -47.333 5 -90.166 17 -128.499s29.667 -69.166 53 -92.499c32 -32 72.333 -47 121 -45c36 1.33301 67 10.5 93 27.5s47.333 38.167 64 63.5s29.334 53.5 38.001 84.5s13.667 61.5 15 91.5c2.66699 50.667 -2.83301 98.834 -16.5 144.501
s-33.5 83.167 -59.5 112.5c-32.667 36 -71.334 54.333 -116.001 55c-1.33301 0.666992 -3.33301 1 -6 1z" />
    <glyph glyph-name="one" unicode="1" horiz-adv-x="118" 
d="M49 -1c-8.66699 0.666992 -15.833 3.99902 -21.5 9.99902s-8.5 13 -8.5 21l19 640c0.666992 8.66699 4 15.834 10 21.501s13 8.16699 21 7.5c8.66699 0 15.834 -3 21.501 -9s8.16699 -13.333 7.5 -22l-19 -640c0 -8 -2.83301 -14.833 -8.5 -20.5
s-12.834 -8.5 -21.501 -8.5z" />
    <glyph glyph-name="two" unicode="2" horiz-adv-x="465" 
d="M262 -3c-31.333 0 -61.8291 0.833984 -91.4961 2.50098s-59.5 3.5 -89.5 5.5c-5.33301 0.666992 -10.833 1 -16.5 1s-11.167 0.333008 -16.5 1s-10.5 2.5 -15.5 5.5s-8.5 7.16699 -10.5 12.5c-4.66699 12 -2.66699 22.667 6 32c55.333 62 103.666 119.667 144.999 173
s75.666 102.666 102.999 147.999c32 52 53 96.667 63 134c10 36.667 9.33301 64.667 -2 84c-11.333 20 -36.333 32.667 -75 38c-50.667 7.33301 -118.667 2 -204 -16c-8 -1.33301 -15.5 0.166992 -22.5 4.5s-11.167 10.833 -12.5 19.5c-1.33301 8 0.166992 15.5 4.5 22.5
s10.5 11.167 18.5 12.5c94.667 19.333 169.334 25 224.001 17c58 -8 97.667 -30.667 119 -68c35.333 -61.333 14.666 -154.333 -62.001 -279c-24.667 -41.333 -54.834 -85.5 -90.501 -132.5s-76.834 -97.5 -123.501 -151.5c48 -3.33301 96.833 -5.33301 146.5 -6
s101.834 2.66602 156.501 9.99902c8 1.33301 15.333 -0.666992 22 -6s10.667 -12 12 -20c1.33301 -8.66699 -0.666992 -16.167 -6 -22.5s-12 -10.166 -20 -11.499c-28.667 -3.33301 -56.334 -5.83301 -83.001 -7.5s-53 -2.5 -79 -2.5z" />
    <glyph glyph-name="three" unicode="3" horiz-adv-x="455" 
d="M195 -2c-54 0 -107 13.3359 -159 40.0029c-7.33301 3.33301 -12.333 9 -15 17s-2 15.667 2 23c3.33301 7.33301 9 12.333 17 15s15.667 2 23 -2c26 -13.333 51.667 -22.333 77 -27s49.5 -6.33398 72.5 -5.00098s44.167 5.5 63.5 12.5s36 15.833 50 26.5
c17.333 12.667 30 26.667 38 42s10.333 30.666 7 45.999c-4.66699 26 -22.5 50.167 -53.5 72.5s-72.5 41.166 -124.5 56.499c-12 4 -19 12 -21 24c-2 12.667 2.33301 22.667 13 30c37.333 24.667 67.166 48.334 89.499 71.001s39 43.667 50 63s16.833 36.666 17.5 51.999
s-2 28.333 -8 39c-7.33301 12 -18.166 21.667 -32.499 29s-31.5 12 -51.5 14c-24 2.66699 -49.667 1 -77 -5s-55 -16 -83 -30c-7.33301 -3.33301 -15 -3.66602 -23 -0.999023s-13.667 7.66699 -17 15c-4 7.33301 -4.66699 14.833 -2 22.5s7.66699 13.5 15 17.5
c33.333 16.667 66.333 28.5 99 35.5s64 8.83301 94 5.5c29.333 -3.33301 54.666 -10.666 75.999 -21.999c24 -13.333 42 -30.333 54 -51s17.333 -43.334 16 -68.001s-8.66602 -50 -21.999 -76c-22.667 -42.667 -60.667 -85 -114 -127
c39.333 -14.667 72.333 -33.334 99 -56.001c37.333 -30 59 -63.333 65 -100c5.33301 -28 1.33301 -55.667 -12 -83c-12 -23.333 -30.667 -44.666 -56 -63.999c-19.333 -14.667 -41.5 -26.334 -66.5 -35.001s-51.5 -14 -79.5 -16c-3.33301 0 -6.83301 -0.166992 -10.5 -0.5
s-7.16699 -0.5 -10.5 -0.5z" />
    <glyph glyph-name="four" unicode="4" horiz-adv-x="426" 
d="M404 285c1.33301 -8 -0.330078 -15.501 -4.99707 -22.501s-11 -11.167 -19 -12.5c-3.33301 -0.666992 -6.5 -1.16699 -9.5 -1.5s-6.16699 -0.833008 -9.5 -1.5v-218c0 -8 -3 -15 -9 -21s-13 -9 -21 -9c-8.66699 0 -15.834 3 -21.501 9s-8.5 13 -8.5 21v209
c-45.333 -6 -82.666 -9 -111.999 -9h-12c-55.333 0.666992 -96.333 14 -123 40c-14.667 13.333 -25.334 30.666 -32.001 51.999s-10.334 48 -11.001 80c-0.666992 26.667 0.833008 56.834 4.5 90.501s8.16699 71.834 13.5 114.501l4 32.5l4 34.5
c1.33301 8 5.16602 14.667 11.499 20s13.5 7.33301 21.5 6s14.667 -5.16602 20 -11.499s7.33301 -13.5 6 -21.5l-4 -34.5l-4 -33.5c-4.66699 -37.333 -8.66699 -71.666 -12 -102.999s-5 -59 -5 -83s1.83301 -44.5 5.5 -61.5s10.167 -29.833 19.5 -38.5
c15.333 -14.667 42.666 -22.334 81.999 -23.001c30.667 -0.666992 71.667 2.33301 123 9v325c0 8.66699 2.83301 15.834 8.5 21.501s12.834 8.5 21.501 8.5c8 0 15 -2.83301 21 -8.5s9 -12.834 9 -21.501v-315c1.33301 0 2.83301 0.166992 4.5 0.5s3.16699 0.5 4.5 0.5
c8 1.33301 15.333 -0.333984 22 -5.00098s10.667 -11 12 -19z" />
    <glyph glyph-name="five" unicode="5" horiz-adv-x="505" 
d="M205 -2c-44 0 -91.3369 4.99609 -142.004 14.9961c-8 1.33301 -14.333 5.5 -19 12.5s-6.33398 14.5 -5.00098 22.5s5.5 14.333 12.5 19s14.5 6.33398 22.5 5.00098c44 -8.66699 85.333 -13.167 124 -13.5s73.334 3.16699 104.001 10.5c24.667 6 46.167 14.333 64.5 25
s32.166 23.334 41.499 38.001c19.333 29.333 19.333 59 0 89c-9.33301 14.667 -23.166 27.5 -41.499 38.5s-39.5 19.833 -63.5 26.5c-61.333 16 -134.666 16 -219.999 0c-6 -1.33301 -11.333 -1 -16 1c-6 2 -12.667 6 -20 12s-13.666 15.667 -18.999 29
c-4.66699 13.333 -7 31 -7 53c0 18.667 1.5 38.5 4.5 59.5l9.5 63.5c3.33301 20 6.16602 39 8.49902 57s3.5 34 3.5 48c0 18 7.33301 33.667 22 47c10 9.33301 23.167 16.833 39.5 22.5s36.166 10.167 59.499 13.5c34 4 75.667 6 125 6c20.667 0 40.334 -0.5 59.001 -1.5
s35.167 -2 49.5 -3s26 -2 35 -3s13.833 -1.5 14.5 -1.5c8 -1.33301 14.667 -5.16602 20 -11.499s7.33301 -13.5 6 -21.5c-0.666992 -8.66699 -4.16699 -15.667 -10.5 -21s-13.833 -7.33301 -22.5 -6c-14 1.33301 -29.333 2.66602 -46 3.99902
c-14 1.33301 -30.333 2.33301 -49 3l-57 2c-35.333 0 -64.333 -1 -87 -3s-40.667 -4.5 -54 -7.5s-23.166 -6 -29.499 -9s-10.5 -5.5 -12.5 -7.5l-2 -2c0 -16 -1.33301 -33.667 -4 -53s-5.66699 -39.666 -9 -60.999c-3.33301 -18.667 -6.16602 -37 -8.49902 -55
s-3.83301 -34.667 -4.5 -50c-0.666992 -13.333 -0.5 -23.166 0.5 -29.499s2.16699 -10.833 3.5 -13.5c89.333 16 167 15 233 -3c64.667 -17.333 111.334 -47.333 140.001 -90c16 -24.667 24 -50.667 24 -78s-8 -53 -24 -77c-28.667 -43.333 -75.667 -73 -141 -89
c-34 -8 -71.333 -12 -112 -12z" />
    <glyph glyph-name="six" unicode="6" horiz-adv-x="464" 
d="M250 397c56.667 -1.33301 102.997 -21.999 138.997 -61.999c18.667 -20.667 32.334 -44.5 41.001 -71.5s11.667 -55.167 9 -84.5c-2.66699 -23.333 -8.83398 -45.666 -18.501 -66.999s-22.5 -40 -38.5 -56c-36.667 -36.667 -85 -56 -145 -58h-8
c-58.667 0 -104.667 18.667 -138 56c-19.333 20.667 -32.666 45 -39.999 73s-11.333 57.5 -12 88.5s1.5 62.667 6.5 95s10.5 63.166 16.5 92.499c17.333 86.667 50.333 154.334 99 203.001c61.333 61.333 145 92 251 92c8 0 15 -2.83301 21 -8.5s9 -12.834 9 -21.501
c0 -8 -3 -15 -9 -21s-13 -9 -21 -9c-89.333 0 -158.666 -24.667 -207.999 -74c-15.333 -15.333 -28.166 -31.833 -38.499 -49.5s-19 -36 -26 -55s-12.5 -38.167 -16.5 -57.5s-7 -38 -9 -56c17.333 17.333 37 30.166 59 38.499s45.667 12.5 71 12.5h6zM378.997 185.001
c1.33301 20 -1.00391 39.8301 -7.00391 59.4971s-15.333 36.5 -28 50.5c-22.667 26.667 -54.667 40.667 -96 42c-0.666992 0.666992 -2 1 -4 1c-36 0 -67 -13 -93 -39c-11.333 -11.333 -20.5 -24.166 -27.5 -38.499s-12.167 -29.5 -15.5 -45.5v-3
c0 -2.66699 -0.666992 -6 -2 -10c-0.666992 -4 -1 -8 -1 -12v-12c0 -14.667 2.33301 -29.167 7 -43.5s11.834 -27.166 21.501 -38.499s22.334 -20.5 38.001 -27.5s34.834 -10.5 57.501 -10.5h6c24.667 0.666992 45.834 4.83398 63.501 12.501s32.167 17.5 43.5 29.5
s20 25.333 26 40s9.66699 29.667 11 45z" />
    <glyph glyph-name="seven" unicode="7" horiz-adv-x="438" 
d="M156 -2c-4.66699 0 -9.33398 1.00391 -14.001 3.00391c-7.33301 3.33301 -12.166 9 -14.499 17s-1.83301 15.667 1.5 23l11.5 22.5l29 59l40 83.5l45.5 98l47 109c14 32.667 25.667 61.667 35 87c8 22 13.833 40 17.5 54s6.33398 25 8.00098 33s2.5 13.667 2.5 17v6
c-0.666992 0.666992 -3.33398 3 -8.00098 7s-16.334 8 -35.001 12c-28 6 -66 9 -114 9c-20.667 0 -41 -0.5 -61 -1.5s-37.667 -2.16699 -53 -3.5s-27.833 -2.5 -37.5 -3.5l-14.5 -1.5c-8 -1.33301 -15.167 0.666992 -21.5 6s-10.166 12 -11.499 20
c-1.33301 8.66699 0.666992 16.167 6 22.5s12 10.166 20 11.499c0.666992 0 6 0.5 16 1.5s23 2.16699 39 3.5s34.167 2.5 54.5 3.5s41.5 1.5 63.5 1.5c51.333 0 93.666 -3.66699 126.999 -11c20.667 -4 38 -10 52 -18c18.667 -11.333 30.334 -25.333 35.001 -42
c1.33301 -4.66699 2.33301 -10.334 3 -17.001s0 -15.5 -2 -26.5s-5.16699 -24.5 -9.5 -40.5s-10.833 -36 -19.5 -60c-9.33301 -26.667 -21 -56.834 -35 -90.501s-30.333 -70.834 -49 -111.501l-45.5 -99l-41 -85.5l-30 -60l-11.5 -22.5c-5.33301 -10.667 -14 -16 -26 -16z
" />
    <glyph glyph-name="eight" unicode="8" horiz-adv-x="440" 
d="M363 339c18.667 -20.667 32.498 -44.666 41.498 -71.999s12.167 -56 9.5 -86c-4 -49.333 -22.667 -90.666 -56 -123.999c-36 -37.333 -84.333 -57 -145 -59h-8c-56 0 -100.667 17.667 -134 53c-8.66699 9.33301 -16.334 19.833 -23.001 31.5s-12 24.167 -16 37.5
c-7.33301 24 -10.333 50 -9 78c2 26 7.66699 50.833 17 74.5s22 44.834 38 63.501c5.33301 6 10.833 11.667 16.5 17s11.834 10.333 18.501 15c-5.33301 3.33301 -10.166 7 -14.499 11s-8.5 8.33301 -12.5 13c-16 18.667 -27.167 40.667 -33.5 66s-7.16602 52 -2.49902 80
c3.33301 21.333 9.5 41.333 18.5 60s20.167 35 33.5 49c32.667 34 72 51 118 51h6c24.667 -0.666992 48.334 -6.33398 71.001 -17.001c19.333 -10 36.666 -24 51.999 -42c13.333 -16 23.5 -34.333 30.5 -55s10.5 -42.334 10.5 -65.001s-3.66699 -44.334 -11 -65.001
s-18 -39 -32 -55c-7.33301 -8 -16 -16 -26 -24l22 -16.5c7.33301 -5.66699 14 -12.167 20 -19.5zM108.998 529.001c-3.33301 -19.333 -2.99902 -37.6689 1.00098 -55.002s11 -31.666 21 -42.999c17.333 -20 41 -30.333 71 -31c3.33301 0.666992 6.33301 1 9 1h9h5
c19.333 2 35.833 7 49.5 15s24.667 17.5 33 28.5s14.333 23 18 36s5.5 25.833 5.5 38.5c0 14 -2.16699 28 -6.5 42s-10.833 26.667 -19.5 38s-19.834 20.5 -33.501 27.5s-29.5 10.833 -47.5 11.5h-4c-16 0 -30.5 -3.16699 -43.5 -9.5s-24.167 -14.666 -33.5 -24.999
s-16.833 -22 -22.5 -35s-9.5 -26.167 -11.5 -39.5zM353.999 185.998c2 21.333 -0.169922 41.832 -6.50293 61.499s-15.833 36.834 -28.5 51.501c-24 26.667 -55 40.667 -93 42c-2 0 -4 -0.166992 -6 -0.5s-4 -0.5 -6 -0.5h-7h-3c-18.667 -2 -35.167 -7.5 -49.5 -16.5
s-26.666 -20.167 -36.999 -33.5s-18.5 -28.333 -24.5 -45s-9.33301 -33.667 -10 -51c-1.33301 -20 0.833984 -39 6.50098 -57s14.167 -33 25.5 -45c20.667 -22.667 50.667 -34 90 -34h6c24.667 0.666992 45.667 5 63 13s31.833 18 43.5 30s20.334 25.333 26.001 40
s9.16699 29.667 10.5 45z" />
    <glyph glyph-name="nine" unicode="9" horiz-adv-x="464" 
d="M214 299c-56.667 1.33301 -103.003 22 -139.003 62c-18.667 20.667 -32.334 44.5 -41.001 71.5s-11.667 55.167 -9 84.5c2.66699 23.333 8.83398 45.666 18.501 66.999s22.5 40 38.5 56c36.667 36.667 85 56 145 58h8c58.667 0 104.667 -18.667 138 -56
c18.667 -21.333 31.834 -45.833 39.501 -73.5s11.834 -57 12.501 -88s-1.5 -62.667 -6.5 -95s-10.5 -63.166 -16.5 -92.499c-17.333 -86.667 -50.333 -154.334 -99 -203.001c-61.333 -61.333 -145 -92 -251 -92c-8 0 -15 2.83301 -21 8.5s-9 12.834 -9 21.501c0 8 3 15 9 21
s13 9 21 9c89.333 0 158.666 24.667 207.999 74c14.667 14.667 27.334 31 38.001 49s19.5 36.5 26.5 55.5s12.5 38.167 16.5 57.5s7 38 9 56c-35.333 -34 -78.666 -51 -129.999 -51h-6zM84.9971 511c-1.33301 -20 1.00391 -39.8301 7.00391 -59.4971s15.333 -36.5 28 -50.5
c22.667 -26.667 54.667 -40.667 96 -42c0.666992 -0.666992 2 -1 4 -1c36 0 67 13 93 39c11.333 11.333 20.5 24.166 27.5 38.499s12.167 29.5 15.5 45.5v3c0 2.66699 0.666992 6 2 10c0.666992 4 1 8 1 12v12c0 14.667 -2.33301 29.167 -7 43.5
s-11.834 27.166 -21.501 38.499s-22.334 20.5 -38.001 27.5s-34.834 10.5 -57.501 10.5h-6c-24.667 -0.666992 -45.834 -4.83398 -63.501 -12.501s-32.167 -17.5 -43.5 -29.5s-20 -25.5 -26 -40.5s-9.66699 -29.833 -11 -44.5z" />
    <glyph glyph-name="colon" unicode=":" horiz-adv-x="154" 
d="M43 19c-5.33301 4 -9.16602 8.66699 -11.499 14s-4.16602 11.333 -5.49902 18c-0.666992 14 3.5 26.167 12.5 36.5s20.5 15.833 34.5 16.5h4c6 0 11.833 -0.833008 17.5 -2.5s10.5 -5.16699 14.5 -10.5c5.33301 -4 9.16602 -8.66699 11.499 -14
s4.16602 -11.333 5.49902 -18c1.33301 -14 -2.33398 -26.167 -11.001 -36.5s-20 -15.833 -34 -16.5h-4c-13.333 0 -24.666 4.33301 -33.999 13zM43 349c-4.66699 4 -7.99805 8.5 -9.99805 13.5s-3.66699 10.5 -5 16.5c-0.666992 13.333 3 24.833 11 34.5
s18 14.834 30 15.501h4c12.667 0 22 -4 28 -12c5.33301 -4 8.83301 -8.5 10.5 -13.5s3.16699 -10.5 4.5 -16.5c1.33301 -13.333 -1.83398 -24.833 -9.50098 -34.5s-17.834 -14.834 -30.501 -15.501h-3c-11.333 0 -21.333 4 -30 12z" />
    <glyph glyph-name="semicolon" unicode=";" horiz-adv-x="156" 
d="M90 -151c-7.33301 0 -14.3311 2.66992 -20.998 8.00293c-6 5.33301 -9.16699 12.166 -9.5 20.499s2.5 15.5 8.5 21.5c7.33301 10 10.666 22 9.99902 36c-1.33301 11.333 -5 22.666 -11 33.999s-14 20.666 -24 27.999c-6.66699 5.33301 -10.5 12 -11.5 20
s1.16699 15.333 6.5 22s11.833 10.5 19.5 11.5s15.167 -1.16699 22.5 -6.5c16.667 -12.667 30 -28.167 40 -46.5s15.667 -37.5 17 -57.5c3.33301 -33.333 -5.33398 -60.333 -26.001 -81c-4.66699 -6.66699 -11.667 -10 -21 -10zM28.002 350.003
c-5.33301 4 -9.16602 8.66699 -11.499 14s-4.16602 11.333 -5.49902 18c-0.666992 14 3.5 26.167 12.5 36.5s20.5 15.833 34.5 16.5h4c6 0 11.833 -0.833008 17.5 -2.5s10.5 -5.16699 14.5 -10.5c5.33301 -4 9.16602 -8.66699 11.499 -14s4.16602 -11.333 5.49902 -18
c1.33301 -14 -2.33398 -26.167 -11.001 -36.5s-20 -15.833 -34 -16.5h-4c-13.333 0 -24.666 4.33301 -33.999 13z" />
    <glyph glyph-name="less" unicode="&#x3c;" horiz-adv-x="372" 
d="M319 195c-2.66699 0 -4.66895 0.333984 -6.00195 1.00098l-12.5 2.5l-32.5 6.5c-13.333 2.66699 -28.5 6 -45.5 10l-51.5 12c-42 10 -75 19 -99 27c-15.333 4.66699 -27.333 9 -36 13c-4 2 -9.83301 5.66699 -17.5 11s-11.5 13.666 -11.5 24.999c0 8 3 16.167 9 24.5
s17.667 20.833 35 37.5l33 30c12.667 11.333 27.334 23.666 44.001 36.999l40 34l36 30l35 28c6.66699 5.33301 14 7.5 22 6.5s14.667 -4.83301 20 -11.5s7.5 -14 6.5 -22s-4.5 -14.667 -10.5 -20l-9 -7l-23 -18.5l-32 -26.5l-37 -31l-59 -50.5l-34 -30.5
c10.667 -3.33301 25.167 -7.5 43.5 -12.5s42.833 -11.167 73.5 -18.5c16 -4 31.5 -7.66699 46.5 -11l39.5 -8.5c11.333 -2.33301 20.666 -4.33301 27.999 -6l11 -2.5c8 -1.33301 14.333 -5.5 19 -12.5s6 -14.5 4 -22.5c-1.33301 -7.33301 -4.66602 -13.166 -9.99902 -17.499
s-11.666 -6.5 -18.999 -6.5z" />
    <glyph glyph-name="equal" unicode="=" horiz-adv-x="416" 
d="M173 378c-38 0 -77.332 0.999023 -117.999 2.99902c-8 0.666992 -14.833 4 -20.5 10s-8.16699 13.333 -7.5 22c0.666992 8 4 14.833 10 20.5s13 8.16699 21 7.5c53.333 -2.66699 104.166 -3.66699 152.499 -3s95.833 3.66699 142.5 9
c8 0.666992 15.167 -1.66602 21.5 -6.99902s9.83301 -12 10.5 -20c1.33301 -8.66699 -0.666992 -16 -6 -22s-12 -9.66699 -20 -11c-61.333 -6 -123.333 -9 -186 -9zM233.001 268.999c-52.667 0 -112 2 -178 6c-8 0 -14.833 3 -20.5 9s-8.16699 13.333 -7.5 22
c0.666992 8 4 14.833 10 20.5s13 8.16699 21 7.5c58.667 -2.66699 111.5 -4.5 158.5 -5.5s92.5 0.833008 136.5 5.5c8 1.33301 15.167 -0.666992 21.5 -6s9.83301 -12.333 10.5 -21c1.33301 -8 -0.666992 -15.167 -6 -21.5s-12 -9.83301 -20 -10.5c-42 -4 -84 -6 -126 -6z
" />
    <glyph glyph-name="greater" unicode="&#x3e;" horiz-adv-x="348" 
d="M89 197c-12 0 -20.666 5.33398 -25.999 16.001c-4 7.33301 -5 14.833 -3 22.5s6.66699 13.5 14 17.5l8.5 5l22.5 13l32 18c12 6.66699 24.333 14 37 22c25.333 16 45.333 29.167 60 39.5s25.667 18.5 33 24.5l-38 17c-16.667 7.33301 -40 16.666 -70 27.999l-41.5 15.5
l-36 13.5c-10.333 4 -18.833 7.16699 -25.5 9.5l-10 3.5c-7.33301 2.66699 -12.833 7.83398 -16.5 15.501s-4.16699 15.167 -1.5 22.5c3.33301 8 8.66602 13.833 15.999 17.5s14.666 3.83398 21.999 0.500977l10.5 -3.5l27.5 -9.5l38 -14l44 -17l49 -19.5
c14.667 -5.66699 27.667 -11.167 39 -16.5c19.333 -9.33301 33 -16.5 41 -21.5s13.667 -9.5 17 -13.5c7.33301 -8.66699 10 -18.334 8 -29.001c-1.33301 -8.66699 -5.66602 -17.334 -12.999 -26.001s-19 -19 -35 -31c-10 -7.33301 -21.5 -15.333 -34.5 -24
s-27.833 -18 -44.5 -28l-39.5 -24.5l-35 -20l-25 -14c-6.33301 -3.66699 -9.83301 -5.5 -10.5 -5.5c-3.33301 -2.66699 -8 -4 -14 -4z" />
    <glyph glyph-name="question" unicode="?" horiz-adv-x="356" 
d="M343 582c1.33301 -36 -5.00391 -76.665 -19.0039 -121.998c-14.667 -48.667 -35.834 -97.667 -63.501 -147s-60.5 -96.666 -98.5 -141.999c-6 -7.33301 -13.667 -11 -23 -11c-7.33301 0 -13.666 2.33301 -18.999 7c-6.66699 5.33301 -10.334 12.166 -11.001 20.499
s1.66602 15.5 6.99902 21.5c34.667 42 65 86.167 91 132.5s45.667 91.5 59 135.5c12.667 40 18.334 74.333 17.001 103c-1.33301 24.667 -6.66602 41.667 -15.999 51c-6.66699 6.66699 -15.667 9 -27 7s-21.666 -4.66699 -30.999 -8
c-19.333 -7.33301 -41.666 -20 -66.999 -38s-52.333 -40.333 -81 -67c-6 -6 -13.167 -8.83301 -21.5 -8.5s-15.166 3.5 -20.499 9.5c-6 6 -8.83301 13.167 -8.5 21.5s3.5 15.166 9.5 20.499c64.667 60.667 120.334 100 167.001 118c16 6 30.333 9.66699 43 11
s24 1.16602 34 -0.500977s18.5 -4.66699 25.5 -9s13.167 -8.83301 18.5 -13.5c21.333 -19.333 33 -50 35 -92zM145.996 123.002c17.333 0 30.665 -8 39.998 -24c6.66699 -12 10 -24.667 10 -38c0 -14 -3.33301 -27 -10 -39c-9.33301 -16 -22.666 -24 -39.999 -24
s-30.666 8 -39.999 24c-6.66699 12 -10 25 -10 39c0 13.333 3.33301 26 10 38c4.66699 8 10.5 14 17.5 18s14.5 6 22.5 6z" />
    <glyph glyph-name="at" unicode="@" horiz-adv-x="565" 
d="M301 -1c-39.333 0 -72.666 6.50391 -99.999 19.5039s-50 28.167 -68 45.5c-14 13.333 -26.833 28.666 -38.5 45.999s-21.834 36.666 -30.501 57.999c-16.667 39.333 -27.334 81.333 -32.001 126c-5.33301 44 -5.5 88 -0.5 132s14.5 85 28.5 123
c17.333 44 38.333 78.333 63 103c30 30 63.667 45.667 101 47c52.667 2 100.667 -8.66699 144 -32c37.333 -20.667 70.333 -50.334 99 -89.001c17.333 -24.667 31.833 -51.834 43.5 -81.501s20.167 -60.5 25.5 -92.5c5.33301 -30.667 7.16602 -59.834 5.49902 -87.501
s-6.83398 -52.5 -15.501 -74.5c-1.33301 -2.66699 -3 -6.5 -5 -11.5s-5 -10.167 -9 -15.5s-8.83301 -10.333 -14.5 -15s-12.5 -7.66699 -20.5 -9h-9c-15.333 0 -29.166 5.83301 -41.499 17.5s-24.166 24.167 -35.499 37.5l-9.5 11.5
c-3.66699 4.33301 -7.16699 8.16602 -10.5 11.499c-16.667 -34.667 -39.334 -59.667 -68.001 -75c-29.333 -15.333 -59.666 -16.666 -90.999 -3.99902c-18 7.33301 -33.667 19 -47 35s-23.333 35 -30 57c-13.333 48 -8.66602 101.667 14.001 161
c15.333 41.333 33.333 72.333 54 93c14 13.333 27.333 21.333 40 24s23.667 3.33398 33 2.00098c30.667 -6.66699 56.667 -29 78 -67c8 -15.333 14.333 -31.333 19 -48s7 -32.667 7 -48c0 -8 -2.83301 -14.833 -8.5 -20.5s-12.834 -8.5 -21.501 -8.5
c-8 0 -15 2.83301 -21 8.5s-9 12.834 -9 21.501c0 9.33301 -1.66699 20 -5 32s-8 23.333 -14 34c-6.66699 12.667 -13.167 21.667 -19.5 27s-11.833 8.66602 -16.5 9.99902c-1.33301 0 -3.66602 -0.333008 -6.99902 -1s-7.66602 -3.66699 -12.999 -9
c-5.33301 -4.66699 -11.333 -12.334 -18 -23.001s-14 -26.667 -22 -48c-17.333 -46.667 -21.833 -85.667 -13.5 -117s22.833 -51.333 43.5 -60c15.333 -6 30.666 -4.16699 45.999 5.5s28 26.167 38 49.5v1c6 12.667 12.833 21.334 20.5 26.001s14.5 7.33398 20.5 8.00098
c12 1.33301 22.167 -0.666992 30.5 -6s14.166 -9.66602 17.499 -12.999c10 -9.33301 19.667 -20 29 -32l13.5 -15.5c5.66699 -6.33301 10.834 -11.166 15.501 -14.499c0.666992 1.33301 1.16699 2.66602 1.5 3.99902s1.16602 3.33301 2.49902 6c6 16 9.66699 35.5 11 58.5
s0 47 -4 72s-10.833 50.5 -20.5 76.5s-22.5 50 -38.5 72c-8 11.333 -18 22.833 -30 34.5s-25.833 22.167 -41.5 31.5s-33.5 16.833 -53.5 22.5s-42.333 8.16699 -67 7.5c-22.667 -1.33301 -42.667 -11 -60 -29c-10 -9.33301 -19.167 -21 -27.5 -35
s-15.833 -29.667 -22.5 -47c-12 -32.667 -20.333 -68.667 -25 -108s-4.66699 -78.333 0 -117s13.834 -75.334 27.501 -110.001s32.5 -63.334 56.5 -86.001c63.333 -60 153.333 -64 270 -12c7.33301 3.33301 15 3.5 23 0.5s13.667 -8.16699 17 -15.5
c3.33301 -8 3.5 -15.833 0.5 -23.5s-8.16699 -13.167 -15.5 -16.5c-33.333 -14.667 -64 -25.167 -92 -31.5s-53.667 -9.5 -77 -9.5z" />
    <glyph glyph-name="A" unicode="A" 
d="M393 323c1.33301 -8 -0.168945 -15.5049 -4.50195 -22.5049s-10.5 -11.167 -18.5 -12.5l-12.5 -2c-4.33301 -0.666992 -8.5 -1.66699 -12.5 -3c-3.33301 -0.666992 -6.5 -1.16699 -9.5 -1.5s-6.16699 -1.16602 -9.5 -2.49902l7.5 -92l6 -78
c1.66699 -22.667 2.83398 -40.667 3.50098 -54l1 -20c0.666992 -8.66699 -1.66602 -16 -6.99902 -22s-12.333 -9.33301 -21 -10c-8 -0.666992 -15.167 1.83301 -21.5 7.5s-9.5 12.834 -9.5 21.501l-1 19.5c-0.666992 13 -1.83398 30.167 -3.50098 51.5l-6 75l-7.5 90
c-22 -4 -44.5 -7.83301 -67.5 -11.5s-46.5 -6.5 -70.5 -8.5c-2.66699 -27.333 -5 -53.5 -7 -78.5s-3.66699 -47.167 -5 -66.5s-2.33301 -35.333 -3 -48s-1 -20.667 -1 -24c1.33301 -8 -0.333984 -15.167 -5.00098 -21.5s-11 -10.166 -19 -11.499
c-1.33301 0 -2.33301 -0.166992 -3 -0.5s-1.66699 -0.5 -3 -0.5c-7.33301 0 -13.666 2.33301 -18.999 7s-8.66602 10.667 -9.99902 18c-0.666992 1.33301 -1 4 -1 8s0.333008 14 1 30c0.666992 10 1.33398 21.333 2.00098 34s1.66699 25.667 3 39
c1.33301 12.667 2.66602 28.334 3.99902 47.001s3 39.667 5 63h-8c-8 0 -15 2.66699 -21 8s-9 12 -9 20c-0.666992 8.66699 1.83301 16 7.5 22s12.5 9.33301 20.5 10h17l2 22.5c0.666992 7.66699 1.66699 15.5 3 23.5c5.33301 46 11 87 17 123s12.667 68 20 96
c10 41.333 21 72 33 92s26 32 42 36c13.333 3.33301 26.333 0.666016 39 -8.00098c4 -3.33301 8.33301 -7.66602 13 -12.999s9.5 -13.166 14.5 -23.499s10 -23.666 15 -39.999s10.167 -37.166 15.5 -62.499c5.33301 -27.333 10.5 -58.5 15.5 -93.5
s10.167 -73.833 15.5 -116.5c2 0.666992 4.16699 1.16699 6.5 1.5s4.5 0.833008 6.5 1.5c4.66699 1.33301 9 2.16602 13 2.49902s8 1.16602 12 2.49902c8 1.33301 15.5 -0.166992 22.5 -4.5s11.167 -10.833 12.5 -19.5zM137.998 334.995
c-0.666992 -4.66699 -1.16895 -9.16699 -1.50195 -13.5s-0.833008 -8.5 -1.5 -12.5c22 2 43.333 4.66699 64 8s41.334 7 62.001 11c-5.33301 42 -10.5 80.167 -15.5 114.5s-10.167 64.833 -15.5 91.5l-9.5 42c-3 12.667 -6.16699 23.667 -9.5 33c-4 8.66699 -7 15.667 -9 21
c-3.33301 -6 -7.66602 -15.833 -12.999 -29.5s-11 -34.167 -17 -61.5c-6 -26 -11.833 -56 -17.5 -90s-11.167 -72 -16.5 -114z" />
    <glyph glyph-name="B" unicode="B" horiz-adv-x="422" 
d="M354 307c21.333 -30 32.4971 -62.998 33.4971 -98.998s-8.16699 -69.333 -27.5 -100c-22.667 -36.667 -56 -63.334 -100 -80.001c-29.333 -11.333 -63.333 -17 -102 -17c-15.333 0 -31.333 1 -48 3c-5.33301 -10.667 -14 -16 -26 -16c-8.66699 0 -15.834 3 -21.501 9
s-8.5 13 -8.5 21c0.666992 32.667 1 64 1 94v93c0 33.333 0.166992 67.333 0.5 102l1 107.5c0.333008 37 1 75.667 2 116s2.5 83.166 4.5 128.499c0 8.66699 3 15.667 9 21s13.333 8 22 8c8 -0.666992 14.833 -4 20.5 -10s8.16699 -13 7.5 -21v-25
c32.667 17.333 62.334 28 89.001 32c23.333 3.33301 42.333 2.83301 57 -1.5s26.334 -9.5 35.001 -15.5c17.333 -12 29.333 -28.5 36 -49.5s7.33398 -44.167 2.00098 -69.5c-9.33301 -46.667 -34.666 -89 -75.999 -127c-8.66699 -8.66699 -19 -17.334 -31 -26.001
c6.66699 -1.33301 11.667 -2.66602 15 -3.99902c44.667 -14 79.667 -38.667 105 -74zM308.997 139.002c13.333 20.667 19.5 43.168 18.5 67.501s-8.5 46.166 -22.5 65.499c-18 25.333 -43.333 43 -76 53s-70.334 11.333 -113.001 4c-0.666992 -19.333 -1 -38.5 -1 -57.5
v-56.5v-70c0 -23.333 -0.333008 -47.333 -1 -72c46 -5.33301 85.833 -2.33301 119.5 9s58.834 30.333 75.501 57zM119.997 573.003c-1.33301 -32.667 -2.16406 -64 -2.49707 -94s-0.833008 -59 -1.5 -87c42.667 14 78.667 34.667 108 62c15.333 14.667 28 30.334 38 47.001
s16.667 33 20 49c1.33301 6.66699 2 16.167 2 28.5s-5.33301 22.166 -16 29.499c-2 2 -6.33301 4 -13 6s-15.834 2.5 -27.501 1.5s-26.334 -4.66699 -44.001 -11s-38.834 -16.833 -63.501 -31.5z" />
    <glyph glyph-name="C" unicode="C" horiz-adv-x="474" 
d="M230 -2l-2.00293 -0.000976562c-25.333 1.33301 -49 7.33301 -71 18c-24 13.333 -43.667 31.666 -59 54.999c-35.333 50.667 -54.333 124.667 -57 222c-2 58.667 2.33301 112.667 13 162s27 92.666 49 129.999c20 34 43.667 60.833 71 80.5s56 30.5 86 32.5
c21.333 1.33301 41.5 -1.83398 60.5 -9.50098s36.167 -19.167 51.5 -34.5c15.333 -16 27.666 -35.333 36.999 -58s15.666 -48 18.999 -76c1.33301 -8.66699 -0.666992 -16.167 -6 -22.5s-12 -9.83301 -20 -10.5c-8.66699 -1.33301 -16.167 0.5 -22.5 5.5
s-10.166 11.833 -11.499 20.5c-4 44 -17.333 77.333 -40 100c-17.333 18.667 -38.666 27 -63.999 25c-19.333 -1.33301 -38.666 -9.16602 -57.999 -23.499s-36.333 -34.166 -51 -59.499c-6.66699 -11.333 -13.5 -25 -20.5 -41s-13.167 -34.667 -18.5 -56
s-9.5 -45.666 -12.5 -72.999s-3.83301 -57.666 -2.5 -90.999c1.33301 -42 5.83301 -79 13.5 -111s18.5 -58 32.5 -78c20.667 -30 47.667 -45.667 81 -47c17.333 0 34.833 3.83301 52.5 11.5s34.167 18.834 49.5 33.501c15.333 14 27.333 29.5 36 46.5s13.667 34.167 15 51.5
c0.666992 8.66699 4 15.667 10 21s13 7.66602 21 6.99902c8.66699 -0.666992 15.667 -4 21 -10s8 -13 8 -21c-1.33301 -25.333 -8.16602 -50 -20.499 -74s-29.166 -45.667 -50.499 -65c-20.667 -19.333 -43.167 -34.333 -67.5 -45s-48.5 -16 -72.5 -16z" />
    <glyph glyph-name="D" unicode="D" horiz-adv-x="472" 
d="M145 -1c-12.667 0 -22.8262 0.498047 -30.4932 1.49805s-12.167 1.5 -13.5 1.5c-7.33301 1.33301 -13.333 4.83301 -18 10.5s-7 12.167 -7 19.5c1.33301 48.667 2 96.834 2 144.501s0.333008 94.834 1 141.501c0 54 0.166992 106.833 0.5 158.5
s1.16602 103.167 2.49902 154.5c-1.33301 0 -2.33301 -0.166992 -3 -0.5s-1.33398 -0.5 -2.00098 -0.5h-1c-8 -2 -15.5 -1 -22.5 3s-11.833 10 -14.5 18c-2 8 -1 15.5 3 22.5s10 11.833 18 14.5c1.33301 0 10.666 1.83301 27.999 5.5s38.666 5.5 63.999 5.5
s53.166 -3.5 83.499 -10.5s59.5 -20.833 87.5 -41.5c74 -55.333 112.667 -149.333 116 -282c3.33301 -137.333 -31.334 -237.666 -104.001 -300.999c-16 -14 -32.833 -25.167 -50.5 -33.5s-34.834 -14.833 -51.501 -19.5s-32.5 -7.83398 -47.5 -9.50098
s-28.5 -2.5 -40.5 -2.5zM137.008 58.998h17.999c6.66699 0 13.667 0.333008 21 1c47.333 6 87.333 22.667 120 50c58.667 50 86.334 134.667 83.001 254c-2 112.667 -32.667 191 -92 235c-36.667 26.667 -82 40 -136 40h-9v-2c-2 -52 -3.16699 -104.167 -3.5 -156.5
s-0.5 -106.5 -0.5 -162.5v-128c0 -43.333 -0.333008 -87 -1 -131z" />
    <glyph glyph-name="E" unicode="E" horiz-adv-x="415" 
d="M398 41c1.33301 -8.66699 -0.669922 -16.0039 -6.00293 -22.0039s-12.333 -9.66699 -21 -11c-1.33301 0 -13.333 -0.833008 -36 -2.5s-48.667 -3.16699 -78 -4.5c-11.333 -0.666992 -21.833 -1.16699 -31.5 -1.5s-18.834 -0.5 -27.501 -0.5
c-31.333 0 -53.5 1.5 -66.5 4.5s-22.167 6.16699 -27.5 9.5c-7.33301 4.66699 -12.666 11.167 -15.999 19.5s-6 18.833 -8 31.5c-1.33301 8.66699 -2.5 18.834 -3.5 30.501s-1.83301 25.167 -2.5 40.5c-1.33301 22.667 -2.5 48.834 -3.5 78.501s-1.5 62.834 -1.5 99.501
c-8 0 -14.833 2.83301 -20.5 8.5s-8.83398 12.5 -9.50098 20.5c0 8.66699 2.83301 15.834 8.5 21.501s12.5 8.83398 20.5 9.50098h1c0 32.667 0.166992 64.667 0.5 96s0.666016 59.666 0.999023 84.999s0.833008 46.5 1.5 63.5s1.33398 27.833 2.00098 32.5
c0.666992 8.66699 3.83398 15.667 9.50098 21s11.834 9.66602 18.501 12.999s13.5 5.66602 20.5 6.99902s12.5 2.33301 16.5 3c11.333 1.33301 24.333 2.5 39 3.5s31.334 1.5 50.001 1.5h44.5c14.333 0 27.166 -0.333008 38.499 -1s20.666 -1.16699 27.999 -1.5
s11.333 -0.5 12 -0.5c8 -0.666992 14.833 -4 20.5 -10s8.16699 -13.333 7.5 -22s-4.16699 -15.667 -10.5 -21s-13.5 -7.66602 -21.5 -6.99902c-0.666992 0 -11.167 0.5 -31.5 1.5s-43.833 1.5 -70.5 1.5c-36 0.666992 -62.167 0 -78.5 -2s-27.5 -3.66699 -33.5 -5
c-0.666992 -9.33301 -1.16699 -22.5 -1.5 -39.5s-0.666016 -36.833 -0.999023 -59.5s-0.666016 -47.5 -0.999023 -74.5s-0.5 -55.167 -0.5 -84.5l210 5c8.66699 0.666992 16 -1.83301 22 -7.5s9 -12.834 9 -21.501c0.666992 -8 -2 -15 -8 -21s-13 -9 -21 -9l-212 -6
c0 -60.667 1 -112 3 -154c1.33301 -30.667 2.83301 -53.167 4.5 -67.5s3.16699 -24.166 4.5 -29.499c6.66699 -1.33301 18.667 -2.33301 36 -3s45 -0.333984 83 0.999023c14 0.666992 27.333 1.33398 40 2.00098s23.834 1.33398 33.501 2.00098s17.5 1.33398 23.5 2.00098
l9 1c8 1.33301 15.167 -0.833984 21.5 -6.50098s9.83301 -12.5 10.5 -20.5z" />
    <glyph glyph-name="F" unicode="F" horiz-adv-x="424" 
d="M393 694c8.66699 -0.666992 15.668 -4.16797 21.001 -10.501s7.66602 -13.5 6.99902 -21.5c-0.666992 -8.66699 -4 -15.667 -10 -21s-13.333 -7.66602 -22 -6.99902c-11.333 0.666992 -23.333 1.33398 -36 2.00098c-11.333 0.666992 -24 1.16699 -38 1.5
s-28.667 0.5 -44 0.5c-40.667 0.666992 -70.5 0.166992 -89.5 -1.5s-32.167 -3.5 -39.5 -5.5c0 -9.33301 0.166992 -21.833 0.5 -37.5s0.833008 -33.5 1.5 -53.5s1.16699 -41.833 1.5 -65.5s0.5 -47.834 0.5 -72.501c13.333 0 26.333 0.166992 39 0.5s25.334 0.5 38.001 0.5
c25.333 0.666992 50.666 1 75.999 1s50.666 0.666992 75.999 2c8 0 15 -2.83301 21 -8.5s9 -12.5 9 -20.5c0.666992 -8.66699 -1.83301 -15.834 -7.5 -21.501s-12.834 -8.83398 -21.501 -9.50098c-25.333 -0.666992 -50.666 -1.16699 -75.999 -1.5
s-50.666 -0.833008 -75.999 -1.5c-12.667 0 -25.5 -0.166992 -38.5 -0.5s-26.167 -0.5 -39.5 -0.5c0.666992 -3.33301 1 -7 1 -11v-11c0 -41.333 0.166992 -78.833 0.5 -112.5s0.5 -63.167 0.5 -88.5c0 -14.667 -0.166992 -27.5 -0.5 -38.5s-0.5 -20.167 -0.5 -27.5
c0 -10 -0.333008 -16.667 -1 -20v-7c-1.33301 -8.66699 -4.5 -15 -9.5 -19s-10.167 -6.66699 -15.5 -8h-6c-6 0 -11.667 1.83301 -17 5.5s-9 8.5 -11 14.5c-2.66699 6 -2.66699 12.667 0 20c0.666992 10.667 1 39.167 1 85.5s-0.333008 116.5 -1 210.5v6
c-4 -0.666992 -8 -1 -12 -1h-11h-1c-8 0 -15 2.83301 -21 8.5s-9 12.5 -9 20.5c-0.666992 8 1.83301 15 7.5 21s12.834 9.33301 21.501 10h24c-0.666992 30 -1.16699 58.667 -1.5 86s-0.833008 51.833 -1.5 73.5s-1.16699 39.834 -1.5 54.501s-0.5 24.334 -0.5 29.001
c0 12 4 22 12 30c6.66699 6 15.667 10.833 27 14.5s27 6.16699 47 7.5c25.333 3.33301 57.666 4.33301 96.999 3c16.667 0 32.667 -0.166992 48 -0.5s28.833 -0.833008 40.5 -1.5s21.167 -1.16699 28.5 -1.5s11.333 -0.5 12 -0.5z" />
    <glyph glyph-name="G" unicode="G" horiz-adv-x="540" 
d="M494 270c8 0 14.833 -2.99707 20.5 -8.99707s8.5 -13 8.5 -21c0 -8.66699 -2.83301 -15.834 -8.5 -21.501s-12.834 -8.5 -21.501 -8.5h-29c-3.33301 -32 -16 -63.667 -38 -95c-22.667 -32.667 -52.667 -60 -90 -82c-31.333 -18.667 -63 -29.334 -95 -32.001
c-3.33301 -0.666992 -6.5 -1.16699 -9.5 -1.5s-6.16699 -0.5 -9.5 -0.5c-30 0 -56.333 7 -79 21c-32.667 18 -57.667 48.333 -75 91c-18 44 -27 99.333 -27 166c0 60.667 5.66699 116.5 17 167.5s28.333 95.833 51 134.5c10 17.333 21.167 33 33.5 47
s25.166 26.333 38.499 37c27.333 20.667 55.666 32.667 84.999 36c19.333 2 37.833 0 55.5 -6s33.834 -15.667 48.501 -29c30 -28 50 -66.667 60 -116c1.33301 -8 -0.166992 -15.5 -4.5 -22.5s-10.5 -11.167 -18.5 -12.5c-8.66699 -2 -16.334 -0.666992 -23.001 4
s-11 11 -13 19c-3.33301 18.667 -8.66602 34.834 -15.999 48.501s-15.666 25.167 -24.999 34.5c-17.333 15.333 -36.666 22 -57.999 20c-20.667 -2 -41.167 -11.5 -61.5 -28.5s-38.666 -40.833 -54.999 -71.5s-29.666 -68.167 -39.999 -112.5s-15.5 -94.5 -15.5 -150.5
c0 -58 7.66699 -105.333 23 -142c12 -29.333 28.667 -50 50 -62c17.333 -10.667 37.666 -14.834 60.999 -12.501s47.333 10.833 72 25.5c14 8.66699 27.167 18.5 39.5 29.5s23.166 22.833 32.499 35.5c14 20 22.333 38.667 25 56c-3.33301 0 -6.5 -0.166992 -9.5 -0.5
s-6.16699 -0.833008 -9.5 -1.5c-9.33301 -0.666992 -19.5 -1.5 -30.5 -2.5l-39.5 -3.5h-2c-8 0 -14.833 2.66699 -20.5 8s-8.83398 12 -9.50098 20s1.66602 15.167 6.99902 21.5s12.333 9.83301 21 10.5c14.667 1.33301 27.334 2.33301 38.001 3s20.667 1.66699 30 3
c16.667 2 33.334 3.66699 50.001 5s38.667 1.66602 66 0.999023z" />
    <glyph glyph-name="H" unicode="H" horiz-adv-x="527" 
d="M489 302c2 -8 0.833008 -15.498 -3.5 -22.498s-10.5 -11.5 -18.5 -13.5c-11.333 -3.33301 -24.333 -6.33301 -39 -9c0 -27.333 0.333008 -52.833 1 -76.5s1.33398 -44.834 2.00098 -63.501s1.5 -34.5 2.5 -47.5s1.83301 -22.5 2.5 -28.5
c3.33301 -9.33301 3.33301 -17.666 0 -24.999c-4.66699 -10.667 -13 -16.667 -25 -18c-0.666992 0 -1.16699 -0.166992 -1.5 -0.5s-0.833008 -0.5 -1.5 -0.5c-10 0 -18.333 4.33301 -25 13c-2.66699 4 -4.5 8.66699 -5.5 14s-2.16699 15.333 -3.5 30
c-1.33301 18.667 -2.33301 42 -3 70c-0.666992 18.667 -1.16699 38.5 -1.5 59.5s-0.833008 42.833 -1.5 65.5c-29.333 -3.33301 -59.833 -6 -91.5 -8s-62.5 -3 -92.5 -3h-19.5c-6.33301 0 -12.5 0.333008 -18.5 1c-1.33301 -36 -3.33301 -71.333 -6 -106
s-6 -69.667 -10 -105c-0.666992 -7.33301 -3.83398 -13.5 -9.50098 -18.5s-12.167 -7.5 -19.5 -7.5h-4c-8 1.33301 -14.667 5.16602 -20 11.499s-7.33301 13.5 -6 21.5c8 69.333 13 138.666 15 207.999c-4 0.666992 -7.83301 1.16699 -11.5 1.5s-7.16699 0.833008 -10.5 1.5
c-8 2 -14.333 6.33301 -19 13s-6.33398 14.334 -5.00098 23.001c2 8 6.33301 14.167 13 18.5s14.334 5.83301 23.001 4.5c2 -0.666992 4 -1 6 -1s4 -0.333008 6 -1c1.33301 61.333 1.66602 122.333 0.999023 183s-1.66699 121 -3 181c-0.666992 8 1.83301 15 7.5 21
s12.834 9 21.501 9c8 0.666992 15 -1.83301 21 -7.5s9.33301 -12.834 10 -21.501c1.33301 -60.667 2.33301 -121.834 3 -183.501s0.333984 -123.834 -0.999023 -186.501c33.333 -1.33301 69.666 -0.833008 108.999 1.5s76 5.5 110 9.5v22
c-0.666992 76.667 -0.333984 137.334 0.999023 182.001s3 79 5 103s4.16699 40 6.5 48s4.16602 13.333 5.49902 16c3.33301 7.33301 9 12.5 17 15.5s15.667 2.83301 23 -0.5s12.333 -9 15 -17s2.33398 -15.667 -0.999023 -23
c-1.33301 -3.33301 -2.66602 -11.166 -3.99902 -23.499s-2.66602 -30.833 -3.99902 -55.5s-2.33301 -56.167 -3 -94.5s-1 -84.833 -1 -139.5v-24c4.66699 1.33301 9.16699 2.33301 13.5 3s8.16602 1.66699 11.499 3c8 2 15.667 0.833008 23 -3.5s12 -10.5 14 -18.5z" />
    <glyph glyph-name="I" unicode="I" horiz-adv-x="507" 
d="M267 602c-2.66699 -45.333 -4.49902 -92.3311 -5.49902 -140.998s-1.33301 -96.167 -1 -142.5s0.833008 -89.833 1.5 -130.5s1.66699 -75.667 3 -105c30 1.33301 57.833 1.83301 83.5 1.5s53.167 -1.16602 82.5 -2.49902c8.66699 -0.666992 15.834 -4 21.501 -10
s8.16699 -13 7.5 -21c-0.666992 -8.66699 -4 -15.667 -10 -21s-13 -8 -21 -8c-28.667 1.33301 -55.5 2.16602 -80.5 2.49902s-52.167 -0.166992 -81.5 -1.5c-1.33301 -7.33301 -4.5 -13.166 -9.5 -17.499s-11.167 -6.83301 -18.5 -7.5h-1
c-7.33301 0 -13.833 2.16699 -19.5 6.5s-9.16699 9.83301 -10.5 16.5c-10.667 -0.666992 -21.834 -1.16699 -33.501 -1.5s-24.167 -0.833008 -37.5 -1.5c-24 -1.33301 -50 -2.33301 -78 -3h-2c-8 0 -14.833 2.83301 -20.5 8.5s-8.83398 12.5 -9.50098 20.5
c0 8.66699 2.83301 15.834 8.5 21.501s12.5 8.83398 20.5 9.50098c27.333 0.666992 53.666 1.66699 78.999 3c13.333 0.666992 25.666 1.16699 36.999 1.5s22.333 0.833008 33 1.5c-1.33301 29.333 -2.33301 64.5 -3 105.5s-1.16699 84.667 -1.5 131s0 94.166 1 143.499
s2.83301 96.666 5.5 141.999c-15.333 0.666992 -29.5 1.16699 -42.5 1.5s-25.167 0.833008 -36.5 1.5c-8.66699 0 -16.167 0.166992 -22.5 0.5s-11.833 0.833008 -16.5 1.5c-3.33301 0.666992 -6 1 -8 1s-3.66699 0.333008 -5 1c-9.33301 1.33301 -16 4.16602 -20 8.49902
s-6.66699 8.83301 -8 13.5c-2 8 -1.16699 15.333 2.5 22s9.16699 11.667 16.5 15c8 2.66699 16 2.33398 24 -0.999023c8.66699 -1.33301 23.834 -2.33301 45.501 -3s46.5 -1.33398 74.5 -2.00098v8c1.33301 8 5.16602 14.667 11.499 20s13.5 7.66602 21.5 6.99902
c8.66699 -1.33301 15.667 -5 21 -11s7.33301 -13.333 6 -22v-3h57c18.667 0 35.834 0.166992 51.501 0.5s29.334 0.833008 41.001 1.5s20.167 1.66699 25.5 3c8 1.33301 15.5 -0.166992 22.5 -4.5s11.167 -10.5 12.5 -18.5c2 -8 0.833008 -15.5 -3.5 -22.5
s-10.5 -11.5 -18.5 -13.5c-6 -1.33301 -14.333 -2.33301 -25 -3s-22.5 -1.33398 -35.5 -2.00098s-26.667 -1 -41 -1h-42.5h-48v0z" />
    <glyph glyph-name="J" unicode="J" horiz-adv-x="523" 
d="M481 676c8 0 15.0029 -2.83105 21.0029 -8.49805s9 -12.834 9 -21.501c0.666992 -8 -2 -15 -8 -21s-13 -9 -21 -9l-133 -3c2 -69.333 3.16699 -131 3.5 -185s-1 -101.833 -4 -143.5s-8.5 -78.334 -16.5 -110.001s-19.333 -60.167 -34 -85.5
c-10 -17.333 -21.5 -32.5 -34.5 -45.5s-27.167 -23.167 -42.5 -30.5c-21.333 -10.667 -41.666 -16 -60.999 -16c-12 0 -23.333 2 -34 6c-33.333 10 -58.666 33 -75.999 69c-16.667 35.333 -23 81 -19 137c0.666992 8.66699 4.16699 15.667 10.5 21
s13.5 7.66602 21.5 6.99902c8.66699 -0.666992 15.667 -4.16699 21 -10.5s7.66602 -13.5 6.99902 -21.5c-1.33301 -22 -1 -42 1 -60s6.33301 -33.667 13 -47c9.33301 -20.667 22.333 -33.334 39 -38.001c4.66699 -2 10 -3 16 -3c15.333 0 30.666 5.5 45.999 16.5
s28.666 26.167 39.999 45.5c12.667 22 22.5 47.5 29.5 76.5s11.833 63.167 14.5 102.5s3.66699 84.833 3 136.5s-2 110.834 -4 177.501l-156 -4h-1c-8 0 -14.833 2.83301 -20.5 8.5s-8.83398 12.834 -9.50098 21.501c0 8 2.83301 15 8.5 21s12.834 9 21.501 9l156 4
c1.33301 7.33301 4.66602 13.333 9.99902 18s11.666 7 18.999 7c7.33301 0.666992 13.833 -1.33301 19.5 -6s9.16699 -10.667 10.5 -18l134 3v0z" />
    <glyph glyph-name="K" unicode="K" horiz-adv-x="574" 
d="M529 55c7.33301 -4 12 -9.99805 14 -17.998s1 -15.667 -3 -23c-6 -10 -14.667 -15 -26 -15c-6 0 -11.333 1.33301 -16 4l-17.5 10.5l-46 28l-65 39.5l-75.5 46l-82 52.5c-24.667 15.667 -46.334 30.167 -65.001 43.5c-3.33301 2 -6.16602 3.83301 -8.49902 5.5
s-4.5 3.5 -6.5 5.5l-3 -205c0 -8.66699 -2.83301 -15.834 -8.5 -21.501s-12.834 -8.5 -21.501 -8.5s-15.834 3 -21.501 9s-8.5 13 -8.5 21l3 252c-3.33301 3.33301 -6.16602 6.33301 -8.49902 9s-4.16602 5 -5.49902 7c-6.66699 11.333 -8.16699 23.333 -4.5 36
s10.167 26 19.5 40l4 296c0 8.66699 2.83301 15.834 8.5 21.501s12.834 8.5 21.501 8.5s15.834 -3 21.501 -9s8.5 -13 8.5 -21l-3 -224l38 38.5l45 43.5l64 58.5l57 50l41 35l16 13.5c6 5.33301 13.167 7.66602 21.5 6.99902s15.166 -4.33398 20.499 -11.001
s7.66602 -14 6.99902 -22s-4.33398 -14.667 -11.001 -20l-14 -12l-36.5 -31.5l-51 -44.5l-58.5 -53c-40 -36.667 -70.833 -66.5 -92.5 -89.5s-37.5 -41.167 -47.5 -54.5l-1 -45c6.66699 -5.33301 15.334 -11.833 26.001 -19.5l39.5 -27.5l55.5 -36.5l75 -47.5l74 -46l64 -39
l45.5 -27z" />
    <glyph glyph-name="L" unicode="L" horiz-adv-x="478" 
d="M250 -1c-27.333 0 -50.0049 0.495117 -68.0049 1.49512s-32.833 2.16699 -44.5 3.5s-20.667 2.83301 -27 4.5s-11.166 3.5 -14.499 5.5c-9.33301 5.33301 -16 13 -20 23s-7.33301 20.667 -10 32c-1.33301 9.33301 -2.66602 20.5 -3.99902 33.5
s-2.66602 27.833 -3.99902 44.5c-1.33301 27.333 -2.5 59 -3.5 95s-1.16699 76.667 -0.5 122c0.666992 38 1.5 75.333 2.5 112s2 69.334 3 98.001l2.5 69.5c0.666992 17.667 1 26.834 1 27.501c0.666992 8 4 14.833 10 20.5s13 8.16699 21 7.5
c8.66699 0 15.834 -3 21.501 -9s8.16699 -13.333 7.5 -22l-1 -24.5l-2.5 -64c-1 -26.333 -2 -56.666 -3 -90.999s-1.5 -69.5 -1.5 -105.5c-1.33301 -42.667 -1.66602 -81.334 -0.999023 -116.001s1.66699 -65.667 3 -93c1.33301 -36 3.16602 -61.667 5.49902 -77
s4.16602 -25.666 5.49902 -30.999c3.33301 -0.666992 8.66602 -1.5 15.999 -2.5s17.5 -1.83301 30.5 -2.5s29.333 -1.16699 49 -1.5s43.834 -0.166016 72.501 0.500977c19.333 0 37.833 0.333008 55.5 1s33.5 1.33398 47.5 2.00098c16.667 0.666992 32 1.33398 46 2.00098
c8.66699 0.666992 16 -1.83301 22 -7.5s9.33301 -12.5 10 -20.5c0.666992 -8.66699 -1.83301 -16 -7.5 -22s-12.5 -9.33301 -20.5 -10l-13.5 -0.5c-9 -0.333008 -20.667 -0.833008 -35 -1.5s-30.666 -1.33398 -48.999 -2.00098s-37.166 -1 -56.499 -1
c-8.66699 -0 -16.667 -0.166992 -24 -0.5s-14.333 -0.5 -21 -0.5z" />
    <glyph glyph-name="M" unicode="M" horiz-adv-x="600" 
d="M304 -1c-7.33301 0 -13.6689 2.1709 -19.002 6.50391s-8.66602 10.166 -9.99902 17.499l-5.5 25.5l-14.5 66.5l-21.5 94l-25.5 109l-31 119.5c-9.33301 35.667 -18.333 67.167 -27 94.5c-4.66699 15.333 -8.83398 28.5 -12.501 39.5s-7.16699 20.5 -10.5 28.5
c-1.33301 -8 -2.33301 -17.167 -3 -27.5s-1.66699 -22.5 -3 -36.5c-2 -26.667 -3.5 -57.334 -4.5 -92.001s-1.83301 -73 -2.5 -115v-105c0 -34 0.166992 -64.167 0.5 -90.5s0.666016 -47.5 0.999023 -63.5l0.5 -24c0 -8.66699 -2.83301 -15.834 -8.5 -21.501
s-12.5 -8.83398 -20.5 -9.50098c-8.66699 0 -16 2.83301 -22 8.5s-9 12.5 -9 20.5c0 0.666992 -0.166992 9.66699 -0.5 27s-0.666016 40 -0.999023 68s-0.666016 60 -0.999023 96s-0.166016 73 0.500977 111c1.33301 89.333 4.33301 161 9 215c2 24 4.16699 43.833 6.5 59.5
s5 28.5 8 38.5s6.33301 17.5 10 22.5s7.83398 8.83301 12.501 11.5c12 7.33301 24 8 36 2c7.33301 -3.33301 13.833 -8.83301 19.5 -16.5s11.5 -18.834 17.5 -33.501c4.66699 -9.33301 9.33398 -20.5 14.001 -33.5s9.66699 -28.167 15 -45.5
c9.33301 -27.333 18.833 -59.333 28.5 -96l31.5 -124l17 -71l16 -67c3.33301 21.333 6.66602 43.833 9.99902 67.5l10 71.5c7.33301 46 14.666 87.333 21.999 124s14.666 68.667 21.999 96c11.333 43.333 22.666 74.5 33.999 93.5s25 29.5 41 31.5
c13.333 1.33301 24.333 -2.33398 33 -11.001c4 -3.33301 7.83301 -7.66602 11.5 -12.999s7.5 -13 11.5 -23s8.16699 -23.167 12.5 -39.5s8.5 -36.833 12.5 -61.5c4.66699 -27.333 8.83398 -58.666 12.501 -93.999s7.16699 -75 10.5 -119l7.5 -108.5
c2.33301 -35 4 -66.167 5 -93.5s1.83301 -49.333 2.5 -66l1 -25c0 -8.66699 -2.83301 -16 -8.5 -22s-12.834 -9 -21.501 -9c-8 -0.666992 -15 1.83301 -21 7.5s-9 12.834 -9 21.501l-1 24.5l-2.5 64c-1 26.333 -2.5 56.666 -4.5 90.999s-4.33301 69.5 -7 105.5
c-3.33301 42.667 -6.83301 81.167 -10.5 115.5s-7.83398 65.166 -12.501 92.499c-3.33301 22.667 -6.66602 40.834 -9.99902 54.501s-6.33301 24.5 -9 32.5c-3.33301 -8 -7.16602 -18.833 -11.499 -32.5s-9.16602 -32.167 -14.499 -55.5
c-6.66699 -27.333 -13.167 -58.5 -19.5 -93.5l-20.5 -117.5l-15 -107.5l-12 -93c-3.33301 -27 -5.83301 -48.833 -7.5 -65.5l-2.5 -25c-1.33301 -7.33301 -4.5 -13.5 -9.5 -18.5s-11.167 -7.83301 -18.5 -8.5h-2z" />
    <glyph glyph-name="N" unicode="N" horiz-adv-x="503" 
d="M90 -2c-8 0 -14.8271 2.82812 -20.4941 8.49512s-8.83398 12.5 -9.50098 20.5c0 0.666992 -0.166992 10.167 -0.5 28.5s-0.833008 42.5 -1.5 72.5s-1.33398 64 -2.00098 102s-1 76.667 -1 116c-0.666992 46.667 -1 88.334 -1 125.001s0.666992 68.667 2 96
c0.666992 16 1.16699 30.333 1.5 43s1.16602 23.334 2.49902 32.001c0.666992 5.33301 1.33398 10 2.00098 14s1.33398 7.66699 2.00098 11c3.33301 11.333 7.5 19 12.5 23s10.167 6.33301 15.5 7c2.66699 0.666992 7.5 0.5 14.5 -0.5s13.167 -6.16699 18.5 -15.5
c1.33301 -1.33301 3.33301 -4.66602 6 -9.99902c1.33301 -3.33301 3.16602 -7.5 5.49902 -12.5l8.5 -18.5l18.5 -45l23.5 -57l60.5 -146.5c21.667 -52.333 43.5 -102.5 65.5 -150.5c11.333 -25.333 22.166 -48.333 32.499 -69s19.833 -38.667 28.5 -54
c2.66699 -4 5 -7.83301 7 -11.5l6 -10.5c0.666992 8 1.16699 17.833 1.5 29.5s0.5 25.167 0.5 40.5c1.33301 54.667 0.333008 125.334 -3 212.001c-1.33301 36.667 -2.5 72.167 -3.5 106.5s-2.16699 65 -3.5 92s-2.33301 48.667 -3 65s-1 24.833 -1 25.5
c0 8 2.66699 15 8 21s12.333 9.33301 21 10c8 0.666992 15 -1.83301 21 -7.5s9.33301 -12.5 10 -20.5c0 -0.666992 0.5 -10 1.5 -28s2 -41.833 3 -71.5l3.5 -100.5l4 -114c1.33301 -46 2.16602 -87.167 2.49902 -123.5s-0.166992 -67.833 -1.5 -94.5
c0 -16.667 -0.333008 -31.167 -1 -43.5s-1.66699 -23.166 -3 -32.499c-0.666992 -5.33301 -1.33398 -10.166 -2.00098 -14.499s-1.33398 -8.16602 -2.00098 -11.499c-4.66699 -15.333 -13.667 -25 -27 -29c-16 -4 -32 2 -48 18c-4.66699 5.33301 -9.5 11.166 -14.5 17.499
s-10.167 14.166 -15.5 23.499c-18.667 30 -40.667 72.333 -66 127c-12 25.333 -24 52 -36 80l-36 84l-34.5 82.5l-31.5 75.5l-15 39c0 -2.66699 -0.166992 -5.16699 -0.5 -7.5s-0.5 -5.16602 -0.5 -8.49902c-1.33301 -55.333 -1.33301 -126.666 0 -213.999
c0 -37.333 0.333008 -73.666 1 -108.999s1.33398 -66.833 2.00098 -94.5s1.16699 -49.834 1.5 -66.501l0.5 -25c0.666992 -8.66699 -1.83301 -15.834 -7.5 -21.501s-12.834 -8.83398 -21.501 -9.50098h-1z" />
    <glyph glyph-name="O" unicode="O" horiz-adv-x="583" 
d="M271 -2c-58 0 -107.327 23.001 -147.994 69.001c-34.667 39.333 -58 91.333 -70 156c-8.66699 44 -11.334 89.167 -8.00098 135.5s12.666 90.166 27.999 131.499c16 44.667 37.667 83.334 65 116.001c31.333 36 66.666 62 105.999 78c24.667 9.33301 48 14 70 14
c31.333 0 60.333 -8.33301 87 -25c23.333 -14.667 45.333 -36.334 66 -65.001c17.333 -25.333 31.666 -54.333 42.999 -87s19.666 -67.667 24.999 -105c5.33301 -44.667 5.66602 -88.167 0.999023 -130.5s-14.334 -81.5 -29.001 -117.5
c-36.667 -86.667 -95 -140.667 -175 -162c-21.333 -5.33301 -41.666 -8 -60.999 -8zM314.006 638.001c-16 0 -31.6631 -3.33301 -46.9961 -10c-19.333 -8 -36.5 -18 -51.5 -30s-28 -25.333 -39 -40s-20.333 -29.5 -28 -44.5s-13.834 -29.5 -18.501 -43.5
c-13.333 -36.667 -21.5 -75.5 -24.5 -116.5s-0.833008 -80.833 6.5 -119.5c2 -10 6 -24.833 12 -44.5s15 -39.334 27 -59.001s27.667 -36.667 47 -51s43.666 -21.5 72.999 -21.5c14.667 0 30 2 46 6c34 8.66699 62.167 25 84.5 49s39.833 52 52.5 84s20.667 66.333 24 103
s2.66602 72.667 -2.00098 108c-4 28 -10.333 55.667 -19 83s-19.834 51.833 -33.501 73.5s-29.667 39.334 -48 53.001s-38.833 20.5 -61.5 20.5z" />
    <glyph glyph-name="P" unicode="P" horiz-adv-x="472" 
d="M455 513c6 -39.333 1.66309 -77.9971 -13.0039 -115.997c-19.333 -52.667 -55 -96.667 -107 -132c-53.333 -37.333 -117.666 -61 -192.999 -71c0 -17.333 -0.166992 -34.333 -0.5 -51s-0.5 -33.334 -0.5 -50.001c0 -11.333 -0.166992 -22.333 -0.5 -33
s-0.5 -21.334 -0.5 -32.001c0 -8.66699 -3 -15.834 -9 -21.501s-13 -8.5 -21 -8.5h-1c-8 0 -14.833 3 -20.5 9s-8.5 13 -8.5 21c0 11.333 0.166992 22.333 0.5 33s0.5 21.667 0.5 33c1.33301 83.333 2.33301 167.833 3 253.5s-0.666016 177.167 -3.99902 274.5
c-7.33301 -2 -14.666 -0.833008 -21.999 3.5s-12 10.5 -14 18.5s-0.833008 15.5 3.5 22.5s10.5 11.5 18.5 13.5c38 10 74.167 15.833 108.5 17.5s66.5 -0.5 96.5 -6.5c28 -6 53.333 -15.167 76 -27.5s42.334 -27.833 59.001 -46.5c26.667 -29.333 43 -64 49 -104z
M385.996 419.003c11.333 28.667 14.667 56.833 10 84.5s-16.334 52.167 -35.001 73.5c-22.667 25.333 -53 42.833 -91 52.5s-81.333 11.167 -130 4.5c4 -135.333 5 -262 3 -380c60.667 9.33301 112.334 28.5 155.001 57.5s72 64.833 88 107.5z" />
    <glyph glyph-name="Q" unicode="Q" horiz-adv-x="578" 
d="M540 406c5.33301 -44 5.00391 -87.0059 -0.996094 -129.006s-17 -80.667 -33 -116c-38.667 -84.667 -99.334 -136.667 -182.001 -156v-22c-0.666992 -12.667 -1 -25.167 -1 -37.5s-0.333008 -25.166 -1 -38.499c0 -8 -2.83301 -15 -8.5 -21s-12.834 -9 -21.501 -9
c-8 0.666992 -15 3.83398 -21 9.50098s-8.66699 12.834 -8 21.501v38c0 12.667 0.333008 25.334 1 38.001v14c-64.667 2 -117.667 31.333 -159 88c-17.333 24.667 -31.833 53.167 -43.5 85.5s-19.5 67.5 -23.5 105.5c-4.66699 44.667 -3.83398 89.334 2.49902 134.001
s17.833 85.334 34.5 122.001c17.333 40 40.666 74 69.999 102c32 30 68.333 49 109 57c7.33301 2 14.833 3.33301 22.5 4s15.167 1 22.5 1c34.667 0 66.334 -8.33301 95.001 -25c28 -16 52.333 -38.333 73 -67c19.333 -26 35.166 -56 47.499 -90s20.833 -70.333 25.5 -109z
M325.004 66.9941c32 10 58.835 26.8359 80.502 50.5029s38.667 50.667 51 81s20.333 63 24 98s3.5 69.167 -0.5 102.5c-3.33301 33.333 -10.333 64.666 -21 93.999s-24 54.666 -40 75.999c-6 8 -12.833 16 -20.5 24s-16.5 15.167 -26.5 21.5s-21.167 11.666 -33.5 15.999
s-25.5 6.5 -39.5 6.5c-11.333 0 -22.333 -1 -33 -3c-18.667 -4 -35.167 -10.5 -49.5 -19.5s-27 -19.333 -38 -31s-20.5 -24 -28.5 -37s-14.667 -25.5 -20 -37.5c-14.667 -32 -24.667 -67.5 -30 -106.5s-6 -78.5 -2 -118.5c7.33301 -66.667 26 -120.667 56 -162
c30.667 -42 67.667 -63.333 111 -64v56c0 18.667 -0.666992 37.667 -2 57c-0.666992 8 1.66602 15.167 6.99902 21.5s12.333 9.83301 21 10.5c8 0.666992 15 -1.83301 21 -7.5s9.33301 -12.5 10 -20.5c1.33301 -19.333 2.16602 -37.833 2.49902 -55.5s0.5 -35.167 0.5 -52.5
z" />
    <glyph glyph-name="R" unicode="R" horiz-adv-x="493" 
d="M442 58c6.66699 -5.33301 10.334 -12.001 11.001 -20.001s-1.66602 -15.333 -6.99902 -22c-6 -6.66699 -13.667 -10 -23 -10c-8 0 -14.667 2.33301 -20 7c-18.667 16 -35.667 31.333 -51 46l-43.5 42.5l-39.5 40.5l-38 40l-41.5 44l-46.5 47l-2 -245
c-0.666992 -8 -3.83398 -15 -9.50098 -21s-12.5 -9 -20.5 -9h-1c-8 0.666992 -15 3.83398 -21 9.50098s-8.66699 12.834 -8 21.501l6 589c-2.66699 -1.33301 -5 -2 -7 -2c-8 -2.66699 -15.667 -2 -23 2s-12.333 9.66699 -15 17c-2.66699 8 -2 15.667 2 23s10 12.333 18 15
c79.333 24 150.666 31 213.999 21c28.667 -5.33301 54.667 -13.833 78 -25.5s43 -26.834 59 -45.501c22 -24 35 -51.333 39 -82c5.33301 -30.667 1 -60.667 -13 -90c-9.33301 -22 -23.333 -41.833 -42 -59.5s-40.667 -33.167 -66 -46.5c-40 -19.333 -85.667 -32 -137 -38
l81 -84l75.5 -79.5c25.667 -26.333 56.167 -54.833 91.5 -85.5zM144 363.999c65.333 2 118.667 13.668 160 35.001c39.333 19.333 66.333 44.666 81 75.999c8.66699 19.333 11.5 38.333 8.5 57s-11.5 36 -25.5 52c-22.667 26 -56.667 43 -102 51c-35.333 6 -75 5 -119 -3z
" />
    <glyph glyph-name="S" unicode="S" horiz-adv-x="404" 
d="M199 -2c-18.667 0 -36.999 2.16602 -54.999 6.49902s-34.667 10.833 -50 19.5c-43.333 24 -67.666 58 -72.999 102c-1.33301 8 0.666992 15.167 6 21.5s12 10.166 20 11.499c8.66699 1.33301 16.167 -0.5 22.5 -5.5s10.166 -11.833 11.499 -20.5
c1.33301 -13.333 6.16602 -24.833 14.499 -34.5s18.833 -17.667 31.5 -24s26.5 -10.833 41.5 -13.5s30.167 -3.33398 45.5 -2.00098c13.333 0.666992 26.5 3.33398 39.5 8.00098s24.5 11 34.5 19s18 18.167 24 30.5s8.66699 27.166 8 44.499
c-1.33301 19.333 -5.5 36 -12.5 50s-16.167 26.667 -27.5 38s-24.333 21.666 -39 30.999l-46 28c-15.333 8.66699 -30.666 17.834 -45.999 27.501s-29.833 20.834 -43.5 33.501s-25.834 26.834 -36.501 42.501s-18.334 34.167 -23.001 55.5
c-5.33301 24.667 -5.33301 49.5 0 74.5s16.333 48.833 33 71.5c14.667 20 32.167 37.167 52.5 51.5s41.5 24.166 63.5 29.499c36.667 8.66699 70.667 4.33398 102 -12.999c32.667 -20.667 55 -54 67 -100c2 -8 1 -15.667 -3 -23s-10 -12 -18 -14s-15.667 -0.833008 -23 3.5
s-12 10.5 -14 18.5c-4.66699 18 -10.834 32.167 -18.501 42.5s-15.834 17.833 -24.501 22.5s-17.667 7 -27 7s-18 -1 -26 -3c-15.333 -4 -30.333 -11 -45 -21s-27.167 -22 -37.5 -36s-17.833 -29.5 -22.5 -46.5s-5 -33.833 -1 -50.5
c3.33301 -14.667 8.83301 -27.667 16.5 -39s17 -21.666 28 -30.999s23 -18.166 36 -26.499s26.833 -16.5 41.5 -24.5l51.5 -32.5c17 -11 32.833 -23.833 47.5 -38.5c34 -34.667 52.333 -76.334 55 -125.001c1.33301 -24 -2.16699 -46.167 -10.5 -66.5
s-21.166 -38.166 -38.499 -53.499c-14 -12.667 -30.667 -22.834 -50 -30.501s-40 -12.5 -62 -14.5c-3.33301 0 -6.66602 -0.166992 -9.99902 -0.5s-6.66602 -0.5 -9.99902 -0.5z" />
    <glyph glyph-name="T" unicode="T" horiz-adv-x="456" 
d="M445 645c0 -8 -2.83105 -14.9941 -8.49805 -20.9941s-12.5 -9.33301 -20.5 -10c-16 -1.33301 -31.333 -2 -46 -2h-45h-34.5c-11.667 0 -23.834 0.333008 -36.501 1c0 -10.667 0.166992 -21.334 0.5 -32.001s0.5 -21.667 0.5 -33
c0.666992 -46.667 1.5 -94.334 2.5 -143.001s1.83301 -96 2.5 -142s0.666992 -89.333 0 -130s-2 -76.334 -4 -107.001c-0.666992 -8 -3.83398 -14.667 -9.50098 -20s-12.5 -8 -20.5 -8h-2c-8 0.666992 -14.833 4 -20.5 10s-8.16699 13.333 -7.5 22c2 30 3.33301 65 4 105
s0.666992 82.833 0 128.5s-1.5 92.667 -2.5 141s-1.83301 95.833 -2.5 142.5c0 11.333 -0.166992 22.666 -0.5 33.999s-0.5 22.666 -0.5 33.999c-11.333 0.666992 -23.166 1.16699 -35.499 1.5s-25.5 0.833008 -39.5 1.5c-23.333 0.666992 -49.333 1.66699 -78 3
c-8 0.666992 -14.833 4 -20.5 10s-8.16699 13 -7.5 21c0 8.66699 3 15.667 9 21s13.333 8 22 8c28 -1.33301 54 -2.33301 78 -3c13.333 -0.666992 25.833 -1.16699 37.5 -1.5s22.834 -0.833008 33.501 -1.5c1.33301 6.66699 4.66602 12.167 9.99902 16.5
s11.666 6.5 18.999 6.5s13.833 -2.33301 19.5 -7s9.16699 -10.667 10.5 -18c29.333 -1.33301 56.5 -1.83301 81.5 -1.5s51.5 1.16602 79.5 2.49902c8.66699 0 16 -2.66699 22 -8s9.33301 -12.333 10 -21z" />
    <glyph glyph-name="U" unicode="U" horiz-adv-x="489" 
d="M241 -1c-34.667 0 -65.3359 13.333 -92.0029 40c-34 32.667 -59.333 87 -76 163c-6 29.333 -11.167 61.333 -15.5 96s-7.16602 72.334 -8.49902 113.001c-1.33301 34 -1.83301 66.5 -1.5 97.5s1 58.5 2 82.5s2 43.167 3 57.5s1.5 22.166 1.5 23.499
c0.666992 8 4.16699 14.833 10.5 20.5s13.5 7.83398 21.5 6.50098c8.66699 -0.666992 15.667 -4.16699 21 -10.5s7.66602 -13.5 6.99902 -21.5l-1.5 -21c-1 -14 -2 -32.833 -3 -56.5s-1.66699 -50.667 -2 -81s0.166992 -62.166 1.5 -95.499
c2.66699 -76.667 10.334 -142.667 23.001 -198c14 -64 33.667 -108.667 59 -134c16.667 -16 35.667 -23 57 -21c24.667 2 46 14 64 36c22.667 28 40 69.5 52 124.5s18.667 122.5 20 202.5c0.666992 30.667 0.333984 60 -0.999023 88s-2.66602 52.667 -3.99902 74
s-2.66602 38.333 -3.99902 51s-2 19.334 -2 20.001c-1.33301 8 0.666992 15.167 6 21.5s12 10.166 20 11.499c8.66699 1.33301 16 -0.666992 22 -6s9.66699 -12 11 -20c0 -1.33301 0.833008 -8.5 2.5 -21.5s3.16699 -30.333 4.5 -52s2.66602 -46.834 3.99902 -75.501
s1.66602 -59 0.999023 -91c-3.33301 -176.667 -31.666 -298.334 -84.999 -365.001c-28.667 -34.667 -63.667 -54 -105 -58c-2.66699 -0 -5 -0.166992 -7 -0.5s-4 -0.5 -6 -0.5z" />
    <glyph glyph-name="V" unicode="V" horiz-adv-x="444" 
d="M199 -2c-7.33301 0 -13.5029 1.66504 -18.5029 4.99805s-9.33301 7.5 -13 12.5s-6.66699 10 -9 15s-4.16602 9.16699 -5.49902 12.5c-6.66699 16.667 -14 41.334 -22 74.001c-7.33301 26 -14.666 57 -21.999 93l-24 123c-7.33301 38.667 -14.166 76.667 -20.499 114
l-16.5 100c-4.66699 29.333 -8.33398 53.166 -11.001 71.499l-4 27.5c-1.33301 8 0.333984 15.333 5.00098 22s11.334 10.667 20.001 12c8 1.33301 15.333 -0.5 22 -5.5s10.667 -11.5 12 -19.5l3.5 -24.5c2.33301 -16.333 5.66602 -37.833 9.99902 -64.5l15 -91.5
c5.66699 -34.333 11.834 -69.5 18.501 -105.5l22.5 -116c7 -34.667 13.5 -65.334 19.5 -92.001c4 -16.667 7.66699 -31 11 -43s6.33301 -22 9 -30c3.33301 8.66699 7.16602 19.167 11.499 31.5s9.16602 27.5 14.499 45.5c9.33301 27.333 19 58.833 29 94.5l32 119.5
l28.5 109l23.5 94.5l16 66.5c4 16.667 6 25.334 6 26.001c2 8 6.5 14.167 13.5 18.5s14.5 5.5 22.5 3.5c8 -1.33301 14.167 -5.66602 18.5 -12.999s5.83301 -15 4.5 -23l-7 -28l-18 -73l-25.5 -102l-30.5 -117l-34.5 -125.5c-10.333 -37 -20.166 -68.833 -29.499 -95.5
c-5.33301 -16.667 -10.5 -31.167 -15.5 -43.5l-13.5 -32.5c-5.33301 -11.333 -11.333 -21.666 -18 -30.999s-16 -14.333 -28 -15h-2z" />
    <glyph glyph-name="W" unicode="W" horiz-adv-x="640" 
d="M462 -2c-4.66699 0 -9.66602 1.16406 -14.999 3.49707s-10.666 7.16602 -15.999 14.499c-1.33301 2.66699 -3 5.66699 -5 9s-4 7.33301 -6 12c-3.33301 7.33301 -6.83301 16.166 -10.5 26.499l-12.5 35.5c-7.33301 22 -15.166 48.167 -23.499 78.5l-28.5 103.5l-18 71.5
l-17 67.5l-15 -66l-16 -70l-26 -102.5c-8 -30.333 -15.333 -56.5 -22 -78.5c-3.33301 -13.333 -6.66602 -25.166 -9.99902 -35.499s-6.66602 -19.166 -9.99902 -26.499c-3.33301 -10 -6.66602 -17 -9.99902 -21c-6.66699 -12.667 -16.667 -19.667 -30 -21
c-4.66699 0 -10.334 1.33301 -17.001 4s-12.334 9.66699 -17.001 21l-4 10.5c-1.33301 3.66699 -2.66602 8.16699 -3.99902 13.5c-5.33301 17.333 -10.333 41.666 -15 72.999c-5.33301 26 -10.666 57 -15.999 93s-11 77 -17 123c-5.33301 38.667 -10.333 76.667 -15 114
l-12.5 100l-9 71.5l-3.5 27.5c-0.666992 8.66699 1.5 16 6.5 22s11.833 9.66699 20.5 11c8 1.33301 15.167 -0.666992 21.5 -6s10.166 -12 11.499 -20l3 -24.5c2 -16.333 4.5 -38 7.5 -65s6.66699 -57.667 11 -92s9.16602 -69.833 14.499 -106.5
c5.33301 -43.333 10.666 -82.333 15.999 -117s10.333 -65.667 15 -93c2 -15.333 4 -28 6 -38c1.33301 3.33301 2.5 6.83301 3.5 10.5s2.16699 7.5 3.5 11.5l20 78l24 98l21 89l17.5 76.5l12 54l4.5 20.5c1.33301 7.33301 4.66602 13.166 9.99902 17.499
s11.666 6.5 18.999 6.5s13.666 -2.16699 18.999 -6.5s8.66602 -9.83301 9.99902 -16.5l5 -20.5l13 -54.5l18.5 -77l22.5 -89c14 -54 25.833 -97.667 35.5 -131s17.834 -59.666 24.501 -78.999l4.5 24l5.5 29c10 54 21 125.667 33 215l15 108.5l12.5 94
c3.66699 27.667 6.5 49.834 8.5 66.501s3 25.334 3 26.001c1.33301 8 5.16602 14.667 11.499 20s13.5 7.33301 21.5 6c8.66699 -1.33301 15.5 -5.16602 20.5 -11.499s6.83301 -13.5 5.5 -21.5c0 -0.666992 -1.16699 -10.167 -3.5 -28.5l-9 -72.5l-13 -102
c-5 -38 -10.5 -76.667 -16.5 -116l-18.5 -125c-5.66699 -36.667 -11.167 -68.667 -16.5 -96l-9 -43c-2.66699 -12.667 -5.33398 -23.667 -8.00098 -33c-1.33301 -5.33301 -2.66602 -10 -3.99902 -14s-2.66602 -7.66699 -3.99902 -11c-1.33301 -2.66699 -4 -7.16699 -8 -13.5
s-10.667 -10.166 -20 -11.499c-1.33301 0 -2.33301 -0.166992 -3 -0.5s-1.66699 -0.5 -3 -0.5z" />
    <glyph glyph-name="X" unicode="X" horiz-adv-x="482" 
d="M434 654c-18.667 -38 -37.833 -74.5 -57.5 -109.5l-61.5 -106.5l-22.5 -39.5l-23.5 -39.5l16.5 -31.5l16.5 -30.5l66.5 -127.5l59.5 -121.5c3.33301 -7.33301 3.5 -15 0.5 -23s-8.16699 -13.667 -15.5 -17c-4 -2 -8.33301 -3 -13 -3c-12.667 0 -21.667 6 -27 18
c-18 39.333 -37.5 79.333 -58.5 120l-65.5 126l-7.5 13.5c-2.33301 4.33301 -4.5 8.83301 -6.5 13.5c-22.667 -41.333 -44.834 -84.666 -66.501 -129.999s-42.167 -95 -61.5 -149c-5.33301 -13.333 -14.666 -20 -27.999 -20c-2 0 -3.83301 0.166992 -5.5 0.5
s-3.5 0.833008 -5.5 1.5c-7.33301 3.33301 -12.833 8.66602 -16.5 15.999s-4.16699 14.666 -1.5 21.999c23.333 64 47.833 122 73.5 174s51.5 101.667 77.5 149l-71.5 141.5c-23.667 48.333 -47.167 98.833 -70.5 151.5c-3.33301 8 -3.33301 15.833 0 23.5
s8.66602 13.167 15.999 16.5s14.833 3.5 22.5 0.5s13.167 -8.5 16.5 -16.5l60.5 -131l62.5 -124c4.66699 7.33301 9 15 13 23s8.33301 15.667 13 23l61 105c19.333 34 38 69.667 56 107c3.33301 7.33301 9 12.333 17 15s15.667 2.33398 23 -0.999023s12.333 -9 15 -17
s2.33398 -15.667 -0.999023 -23z" />
    <glyph glyph-name="Y" unicode="Y" horiz-adv-x="438" 
d="M397 698c8 -2.66699 13.835 -7.66699 17.502 -15s4.16699 -15 1.5 -23l-6 -18c-4 -12 -9.5 -27.667 -16.5 -47l-23.5 -65.5c-8.66699 -24.333 -18 -49.166 -28 -74.499l-33 -81c-10 -24 -19.333 -44.667 -28 -62c-10.667 -20 -20.334 -36.667 -29.001 -50
c-4 -6 -9 -12 -15 -18l-7 -216c0 -8 -2.83301 -14.833 -8.5 -20.5s-12.5 -8.5 -20.5 -8.5h-1c-8.66699 0.666992 -15.834 4 -21.501 10s-8.16699 13 -7.5 21l6 214c-7.33301 7.33301 -14.166 16.5 -20.499 27.5s-12.833 24.167 -19.5 39.5
c-7.33301 17.333 -15.333 37.5 -24 60.5s-18 49.5 -28 79.5l-23 73l-19 64.5l-13 46l-5 17.5c-2.66699 7.33301 -1.83398 14.666 2.49902 21.999s10.5 12 18.5 14c8 2.66699 15.5 1.83398 22.5 -2.49902s11.833 -10.5 14.5 -18.5l4 -15.5
c2.66699 -10.333 6.5 -23.833 11.5 -40.5l17.5 -57.5l21 -66.5c8.66699 -28 16.834 -52.333 24.501 -73l20 -53c5.66699 -14.667 10.667 -26.667 15 -36l10.5 -22c3.33301 5.33301 7.33301 12.333 12 21s10.334 20 17.001 34c16 33.333 34.667 78.333 56 135
c9.33301 23.333 18 46.166 26 68.499l21 59.5l14.5 42l5.5 16c3.33301 8 8.66602 13.833 15.999 17.5s14.666 4.16699 21.999 1.5z" />
    <glyph glyph-name="Z" unicode="Z" horiz-adv-x="497" 
d="M229 -2c-38 0 -68.0029 0.166992 -90.0029 0.5s-39 0.833008 -51 1.5s-20 1.33398 -24 2.00098s-7 1.33398 -9 2.00098c-10.667 3.33301 -18 10 -22 20c-3.33301 8 -3.66602 17.5 -0.999023 28.5s9.33398 27.167 20.001 48.5c6.66699 13.333 14.834 28.666 24.501 45.999
l34.5 60l81 132.5l86 136.5l56 89.5l44 70.5c-11.333 1.33301 -27.833 2.16602 -49.5 2.49902s-51.167 -0.166992 -88.5 -1.5c-18.667 -1.33301 -36.334 -2.33301 -53.001 -3s-31.667 -1.33398 -45 -2.00098l-44 -2c-8.66699 -0.666992 -16 1.66602 -22 6.99902
s-9.33301 12.333 -10 21c-0.666992 8 1.66602 15 6.99902 21s12.333 9.66699 21 11l13.5 1c9 0.666992 20.833 1.33398 35.5 2.00098s31.334 1.33398 50.001 2.00098l58 2c47.333 1.33301 85 1.33301 113 0c25.333 -1.33301 43.833 -3.5 55.5 -6.5
s20.167 -8.16699 25.5 -15.5c7.33301 -10 8.66602 -21 3.99902 -33c-4 -10 -16.167 -31.333 -36.5 -64l-84.5 -134l-80 -128l-77 -126c-21.333 -36 -37.333 -64 -48 -84l-24 -46c16.667 -0.666992 38.5 -1.16699 65.5 -1.5s56.333 -0.5 88 -0.5s64 0.166992 97 0.5
s64.167 0.833008 93.5 1.5c8 0 15 -2.83301 21 -8.5s9 -12.834 9 -21.501c0 -8 -2.83301 -15 -8.5 -21s-12.5 -9 -20.5 -9h-15.5c-10.333 0 -23.666 -0.166992 -39.999 -0.5s-35.166 -0.666016 -56.499 -0.999023s-43.333 -0.5 -66 -0.5h-37z" />
    <glyph glyph-name="bracketleft" unicode="[" horiz-adv-x="354" 
d="M171 -163c-45.333 0 -80.002 5.00098 -104.002 15.001c-13.333 5.33301 -22.666 16.5 -27.999 33.5s-8.66602 39.167 -9.99902 66.5c-2.66699 39.333 -2.66699 94.666 0 165.999c1.33301 32 3 65 5 99l6 101.5c2 33.667 4.33301 66.334 7 98.001s5 61.167 7 88.5
c2.66699 32 4.83398 60.167 6.50098 84.5s2.5 39.5 2.5 45.5c0 14 5 25.667 15 35c3.33301 3.33301 8 6.66602 14 9.99902s14.333 6.33301 25 9s24.167 4.66699 40.5 6s36.5 2 60.5 2c24.667 0 46.334 -0.666992 65.001 -2s28.667 -2.33301 30 -3
c8.66699 -0.666992 15.667 -4.16699 21 -10.5s7.33301 -13.5 6 -21.5c-1.33301 -8.66699 -5 -15.667 -11 -21s-13.333 -7.33301 -22 -6l-27 2c-8 0.666992 -17.333 1.16699 -28 1.5s-21.667 0.5 -33 0.5c-32 0.666992 -55 -0.166016 -69 -2.49902s-23 -4.5 -27 -6.5
c-0.666992 -9.33301 -1.66699 -24.333 -3 -45s-3.33301 -48 -6 -82l-6.5 -82.5c-2.33301 -29.667 -4.5 -60.167 -6.5 -91.5l-6 -95c-2 -32 -3.66699 -63.333 -5 -94c-1.33301 -33.333 -2.33301 -63.166 -3 -89.499s-0.333984 -49.833 0.999023 -70.5
c0.666992 -23.333 1.83398 -40.333 3.50098 -51s3.16699 -18 4.5 -22c14 -4 31 -6.33301 51 -7s40.5 -0.5 61.5 0.5s41 2.5 60 4.5s33.833 4 44.5 6c8.66699 1.33301 16.167 -0.333984 22.5 -5.00098s10.166 -11.334 11.499 -20.001
c1.33301 -8 -0.333984 -15.333 -5.00098 -22s-11 -10.667 -19 -12c-1.33301 0 -11.333 -1.33301 -30 -4s-41 -5 -67 -7c-10 -0.666992 -19.5 -1.16699 -28.5 -1.5s-17.833 -0.5 -26.5 -0.5z" />
    <glyph glyph-name="backslash" unicode="\" horiz-adv-x="297" 
d="M260 -2c-6 0 -11.502 1.83105 -16.502 5.49805s-8.83301 8.16699 -11.5 13.5c-39.333 96.667 -77.166 197.334 -113.499 302.001s-73.166 218.334 -110.499 341.001c-2 7.33301 -1.16699 14.666 2.5 21.999s9.5 12.333 17.5 15s15.667 2 23 -2s12.333 -10 15 -18
c36.667 -121.333 73.167 -233.833 109.5 -337.5s73.833 -203.5 112.5 -299.5c3.33301 -8 3.33301 -15.667 0 -23s-9 -12.666 -17 -15.999c-3.33301 -2 -7 -3 -11 -3z" />
    <glyph glyph-name="bracketright" unicode="]" horiz-adv-x="353" 
d="M157 -163l-25.0049 0.00488281c-22.667 1.33301 -41.834 2.83301 -57.501 4.5s-23.834 2.5 -24.501 2.5c-8.66699 1.33301 -15.5 5.16602 -20.5 11.499s-6.83301 13.833 -5.5 22.5c1.33301 8 5.16602 14.5 11.499 19.5s13.833 6.83301 22.5 5.5s21 -2.5 37 -3.5
s33 -1.66699 51 -2s35.667 0.166992 53 1.5s32.333 4 45 8c2 4.66699 4.5 15.5 7.5 32.5s5.83301 46.167 8.5 87.5c1.33301 32 2.33301 68 3 108s0.333984 83 -0.999023 129c-0.666992 41.333 -1.83398 82.166 -3.50098 122.499s-3.5 77.833 -5.5 112.5
c-3.33301 38 -6.16602 66.167 -8.49902 84.5s-4.16602 30.166 -5.49902 35.499c-1.33301 0.666992 -3.83301 2 -7.5 4s-9.5 3.83301 -17.5 5.5s-18.5 3.16699 -31.5 4.5s-29.5 2.33301 -49.5 3c-12.667 0.666992 -24.667 1 -36 1h-31c-10.667 0 -20.667 -0.333008 -30 -1
c-8.66699 -0.666992 -16 1.66602 -22 6.99902s-9.33301 12.333 -10 21c-0.666992 8 1.83301 15.167 7.5 21.5s12.834 9.5 21.501 9.5c0.666992 0 4.16699 0.166992 10.5 0.5s14.5 0.666016 24.5 0.999023s21.5 0.5 34.5 0.5s26.5 -0.333008 40.5 -1
c44.667 -2 78.667 -6.66699 102 -14s39 -18.333 47 -33c0.666992 -2 1.83398 -4.66699 3.50098 -8s3.16699 -9.5 4.5 -18.5s3 -21.5 5 -37.5s4 -37.667 6 -65c2.66699 -32 4.83398 -67.5 6.50098 -106.5s3.16699 -79.167 4.5 -120.5c1.33301 -46 1.83301 -89.167 1.5 -129.5
s-1.16602 -77.5 -2.49902 -111.5c-1.33301 -41.333 -3.66602 -75.5 -6.99902 -102.5s-7.66602 -47.5 -12.999 -61.5c-1.33301 -3.33301 -4 -9 -8 -17s-10.667 -13.667 -20 -17c-28 -11.333 -66.667 -17 -116 -17z" />
    <glyph glyph-name="asciicircum" unicode="^" horiz-adv-x="299" 
d="M251 357c-14.667 0 -23.9961 6.33105 -27.9961 18.998l-3.5 10c-2.33301 6.66699 -5.5 15.167 -9.5 25.5l-13.5 36l-15.5 41.5c-9.33301 24 -17.333 43.833 -24 59.5s-12.334 28.167 -17.001 37.5c-4 -9.33301 -8.5 -21.333 -13.5 -36s-10.833 -33 -17.5 -55
c-4.66699 -14 -8.66699 -27.333 -12 -40l-9 -34c-2.66699 -12 -5.66699 -23 -9 -33c-2.66699 -8 -7.5 -14.167 -14.5 -18.5s-14.5 -5.5 -22.5 -3.5c-8 2.66699 -14 7.5 -18 14.5s-5 14.5 -3 22.5l3 11l7.5 28.5c3 11.667 6.66699 25 11 40s9.16602 30.167 14.499 45.5
c10.667 36.667 20.667 65.667 30 87l8.5 18.5l6.5 13.5c11.333 17.333 24.666 25 39.999 23c10.667 -1.33301 19.5 -6.66602 26.5 -15.999s15.167 -23 24.5 -41l17.5 -39c6.33301 -14.667 13.166 -31.334 20.499 -50.001l18 -46.5c6 -15 11.167 -28.5 15.5 -40.5l10.5 -29.5
l4 -11.5c3.33301 -7.33301 3 -14.666 -1 -21.999s-9.66699 -12.666 -17 -15.999c-2.66699 -0.666992 -6 -1 -10 -1z" />
    <glyph glyph-name="underscore" unicode="_" horiz-adv-x="599" 
d="M114 -219l-19 -0.00390625c-1.33301 0 -2 0.333008 -2 1s-1.83301 1.16699 -5.5 1.5l-28.5 2.5c-8 1.33301 -14.833 5 -20.5 11s-8.16699 13 -7.5 21s4.16699 14.833 10.5 20.5s13.5 8.16699 21.5 7.5c22 -1.33301 47.333 -2.5 76 -3.5s58.667 -1.66699 90 -2
s62.666 -0.5 93.999 -0.5s60.833 0.166992 88.5 0.5s52.5 0.833008 74.5 1.5s38.667 1.33398 50 2.00098c8.66699 0.666992 16 -1.66602 22 -6.99902s9.33301 -12 10 -20c0.666992 -8.66699 -1.83301 -16 -7.5 -22s-12.5 -9.33301 -20.5 -10
c-6.66699 -0.666992 -20.5 -1 -41.5 -1s-45.833 -0.166992 -74.5 -0.5s-59.167 -0.666016 -91.5 -0.999023s-63.166 -0.666016 -92.499 -0.999023s-55.5 -0.5 -78.5 -0.5h-47.5z" />
    <glyph glyph-name="grave" unicode="`" horiz-adv-x="175" 
d="M134 534c-8 0 -14.332 2.33398 -18.999 7.00098l-28.5 23.5c-8.33301 7 -16 14.167 -23 21.5s-14 15.166 -21 23.499s-14.5 18.166 -22.5 29.499c-5.33301 6.66699 -7.33301 14 -6 22s5.66602 14.333 12.999 19c6.66699 5.33301 14 7.33301 22 6s14.333 -5.33301 19 -12
l21 -27c6 -7.33301 12.167 -14.166 18.5 -20.499s13 -12.5 20 -18.5l25.5 -21c6 -5.33301 9.5 -12 10.5 -20s-1.16699 -15.333 -6.5 -22c-6 -7.33301 -13.667 -11 -23 -11z" />
    <glyph glyph-name="a" unicode="a" 
d="M155 -2l-1.00293 0.00195312c-23.333 0.666992 -44.333 7.16699 -63 19.5s-33.667 30.166 -45 53.499c-10.667 21.333 -17.5 46.166 -20.5 74.499s-2.16699 58.5 2.5 90.5c5.33301 32 13.833 62.5 25.5 91.5s26.167 54.833 43.5 77.5
c28.667 37.333 62.334 63.666 101.001 78.999s80 18.666 124 9.99902c8 -2 14.167 -6.33301 18.5 -13s5.83301 -14 4.5 -22c-1.33301 -8.66699 -5.5 -15.167 -12.5 -19.5s-14.5 -5.83301 -22.5 -4.5c-20.667 4 -39.5 4.66699 -56.5 2s-32.167 -7.5 -45.5 -14.5
s-25.333 -15.167 -36 -24.5s-19.667 -19 -27 -29c-14.667 -19.333 -27 -41 -37 -65s-17 -49.667 -21 -77c-3.33301 -25.333 -4 -49.333 -2 -72s7 -42 15 -58c12 -26 30 -39 54 -39c30.667 0 56.334 13.667 77.001 41c14 17.333 26.167 40 36.5 68s18.5 60 24.5 96
c1.33301 7.33301 2.16602 14 2.49902 20s0.833008 12 1.5 18c-1.33301 13.333 -2.33301 24 -3 32c-0.666992 9.33301 -1.16699 17.666 -1.5 24.999s-0.5 13.666 -0.5 18.999c0 6.66699 0.666992 14.334 2 23.001s6.33301 15.667 15 21c12.667 6.66699 24.667 5.66699 36 -3
c5.33301 -4.66699 9 -10.834 11 -18.501s3.33301 -17.167 4 -28.5c0.666992 -8.66699 0.833984 -18.167 0.500977 -28.5s-1.16602 -21.166 -2.49902 -32.499v-8c2 -23.333 6 -56 12 -98l8 -58.5l7 -50c2 -14.333 3.83301 -26 5.5 -35l2.5 -13.5
c1.33301 -8.66699 -0.5 -16.167 -5.5 -22.5s-11.5 -10.166 -19.5 -11.499c-8.66699 -1.33301 -16.334 0.333984 -23.001 5.00098s-10.667 11 -12 19c0 0.666992 -1.33301 10 -4 28l-10 67c-11.333 -27.333 -23.833 -49.666 -37.5 -66.999s-27.667 -31 -42 -41
s-28.666 -16.833 -42.999 -20.5s-27.833 -5.5 -40.5 -5.5z" />
    <glyph glyph-name="b" unicode="b" horiz-adv-x="460" 
d="M65 0c-10 0 -18 4.00195 -24 12.002c-4.66699 5.33301 -7.5 12.166 -8.5 20.499s-0.5 20.5 1.5 36.5c1.33301 10 3 21.167 5 33.5s4.66699 25.166 8 38.499c0.666992 26.667 1.16699 60.834 1.5 102.501s0.166016 93.834 -0.500977 156.501c0 40.667 -0.333008 80 -1 118
s-1.16699 72 -1.5 102s-0.833008 54 -1.5 72s-1 27.333 -1 28c0 8 2.83301 15 8.5 21s12.834 9 21.501 9c8 0.666992 15 -1.83301 21 -7.5s9 -12.834 9 -21.501c0 -0.666992 0.166992 -10.834 0.5 -30.501s0.833008 -45.667 1.5 -78s1.33398 -68.833 2.00098 -109.5
s1 -82.334 1 -125.001v-27.5c0 -9 0.333008 -18.167 1 -27.5c1.33301 4 3 7.83301 5 11.5l6 10.5c11.333 23.333 23.666 43.833 36.999 61.5s27 32.834 41 45.501c35.333 31.333 73.333 45 114 41c15.333 -1.33301 29.333 -5.16602 42 -11.499s24.667 -15.166 36 -26.499
c18.667 -19.333 33.334 -44.333 44.001 -75c8.66699 -25.333 13.667 -53.333 15 -84s-0.666992 -61 -6 -91c-6 -32.667 -15.833 -62.5 -29.5 -89.5s-30.167 -49.167 -49.5 -66.5c-28 -26 -60.333 -41 -97 -45c-38.667 -4.66699 -81 3 -127 23
c-7.33301 3.33301 -12.5 8.83301 -15.5 16.5s-2.83301 15.167 0.5 22.5s8.83301 12.5 16.5 15.5s15.167 2.83301 22.5 -0.5c67.333 -28.667 120.666 -24.667 159.999 12c14.667 13.333 27.167 30.666 37.5 51.999s17.833 45 22.5 71c4.66699 25.333 6.5 50.5 5.5 75.5
s-5.16699 48.167 -12.5 69.5c-2 6 -5 13 -9 21s-8.66699 15.667 -14 23s-12 13.666 -20 18.999s-17 8.66602 -27 9.99902c-28 2 -54.667 -10.667 -80 -38c-19.333 -20 -38 -47.333 -56 -82s-34 -74.667 -48 -120l-9 -31.5l-8 -28.5c0 -16 -0.333008 -30.167 -1 -42.5
s-1.33398 -22.833 -2.00098 -31.5c-1.33301 -6 -2.16602 -11.167 -2.49902 -15.5s-0.833008 -8.16602 -1.5 -11.499l-6 -15.5c-2.66699 -7 -8.66699 -12.167 -18 -15.5c-4 -1.33301 -7.33301 -2 -10 -2z" />
    <glyph glyph-name="c" unicode="c" horiz-adv-x="446" 
d="M281 1c-31.333 0 -61.3291 3.99902 -89.9961 11.999c-24 7.33301 -46 16.833 -66 28.5s-37.333 25.834 -52 42.501c-34.667 39.333 -52 90 -52 152c0 73.333 21 135 63 185c18 21.333 38.833 38.833 62.5 52.5s48.167 22.167 73.5 25.5
c36.667 5.33301 68.667 0.333008 96 -15c32 -16.667 53 -42.667 63 -78c2.66699 -7.33301 2 -14.666 -2 -21.999s-10 -12.333 -18 -15s-15.667 -2 -23 2s-12.333 10 -15 18c-4 14 -10.167 24.667 -18.5 32s-17.333 12.5 -27 15.5s-18.834 4.5 -27.501 4.5
s-15 -0.333008 -19 -1c-18.667 -2.66699 -36.834 -9.16699 -54.501 -19.5s-33.5 -24.333 -47.5 -42s-25.167 -38.334 -33.5 -62.001s-12.5 -50.5 -12.5 -80.5c0 -26 3.66699 -48.167 11 -66.5s16.666 -33.833 27.999 -46.5s23.833 -23 37.5 -31s27.167 -14 40.5 -18
c17.333 -6 35.833 -10 55.5 -12s38.5 -1.66699 56.5 1c19.333 2 33.333 5.16699 42 9.5s13.667 7.16602 15 8.49902c4.66699 7.33301 10.834 12 18.501 14s15.167 0.666992 22.5 -4s12 -10.834 14 -18.501s0.666992 -15.167 -4 -22.5c-4.66699 -8 -11 -14.667 -19 -20
s-16.333 -9.66602 -25 -12.999s-17.334 -6.16602 -26.001 -8.49902s-16.334 -3.83301 -23.001 -4.5c-15.333 -2 -30 -3 -44 -3z" />
    <glyph glyph-name="d" unicode="d" horiz-adv-x="453" 
d="M383 -1c-5.33301 0 -10.6621 1.6709 -15.9951 5.00391c-7.33301 4 -11.833 9.33301 -13.5 16s-2.83398 11.667 -3.50098 15s-1 7.16602 -1 11.499s-0.333008 9.16602 -1 14.499c0 9.33301 -0.166992 20.666 -0.5 33.999s-0.5 28.666 -0.5 45.999v64l-2 12
c-0.666992 4 -1.66699 8.33301 -3 13c-4 18.667 -9.5 38 -16.5 58s-15.667 39.333 -26 58s-22.666 35.334 -36.999 50.001s-30.833 26 -49.5 34c-26.667 10.667 -53.334 1.33398 -80.001 -27.999c-13.333 -16 -25.166 -35.833 -35.499 -59.5s-17.5 -48.5 -21.5 -74.5
c-4 -28 -4.5 -54.167 -1.5 -78.5s9.83301 -45.833 20.5 -64.5c31.333 -54.667 91 -74 179 -58c8 1.33301 15.5 -0.333984 22.5 -5.00098s11.167 -11 12.5 -19s-0.333984 -15.5 -5.00098 -22.5s-11 -11.167 -19 -12.5c-58.667 -10.667 -109 -7.66699 -151 9
c-39.333 15.333 -69.666 41.666 -90.999 78.999c-13.333 24 -22.333 51.667 -27 83s-4.33398 64.333 0.999023 99c5.33301 32 14.166 62.167 26.499 90.5s27.166 52.5 44.499 72.5c21.333 24.667 44.833 40.834 70.5 48.501s51.167 6.5 76.5 -3.5
c46 -18.667 84.667 -54.667 116 -108v1c0.666992 42 1.5 83.333 2.5 124s2 77 3 109l2.5 78l1 30c0.666992 8.66699 4 15.834 10 21.501s13 8.16699 21 7.5c8.66699 0 15.834 -3 21.501 -9s8.16699 -13.333 7.5 -22l-1 -27.5
c-0.666992 -18.333 -1.33398 -42.5 -2.00098 -72.5s-1.66699 -64.333 -3 -103s-2.33301 -78.334 -3 -119.001c-1.33301 -38.667 -2.16602 -73.334 -2.49902 -104.001s-0.833008 -58 -1.5 -82c2.66699 -12 4.5 -23.5 5.5 -34.5s2.16699 -21.167 3.5 -30.5
c3.33301 -30 4.33301 -57.333 3 -82c-0.666992 -18 -2.33398 -31.167 -5.00098 -39.5s-7.33398 -14.833 -14.001 -19.5c-6.66699 -3.33301 -12.334 -5 -17.001 -5z" />
    <glyph glyph-name="e" unicode="e" horiz-adv-x="424" 
d="M262 2c-26 0 -52.001 3.66895 -78.001 11.002c-48 13.333 -86 37 -114 71c-33.333 40.667 -50 91.667 -50 153c0 73.333 21 135 63 185c18 21.333 39 38.833 63 52.5s48.667 22.167 74 25.5c36 5.33301 68 0.333008 96 -15c31.333 -16.667 52 -42.667 62 -78
c0 -0.666992 0.166992 -1.16699 0.5 -1.5s0.5 -0.833008 0.5 -1.5c6 -35.333 3.66699 -67.666 -7 -96.999c-11.333 -28.667 -28.333 -52.667 -51 -72c-27.333 -23.333 -58.666 -38.833 -93.999 -46.5s-69 -5.83398 -101 5.49902c-7.33301 2.66699 -13 7.66699 -17 15
s-4.33301 15 -1 23c2.66699 8 7.66699 13.833 15 17.5s15 4.16699 23 1.5c21.333 -7.33301 44.5 -8.33301 69.5 -3s46.833 16 65.5 32c34 29.333 47 66.666 39 111.999c-4 14 -10.333 24.5 -19 31.5s-17.667 11.833 -27 14.5s-18.166 4 -26.499 4
s-14.833 -0.333008 -19.5 -1c-18 -2.66699 -35.833 -9.16699 -53.5 -19.5s-33.5 -24.333 -47.5 -42s-25.333 -38.334 -34 -62.001s-13 -50.5 -13 -80.5c0 -27.333 3.66699 -50.5 11 -69.5s16.666 -35 27.999 -48s24 -23.333 38 -31s27.667 -13.5 41 -17.5
c15.333 -4.66699 31.5 -7.5 48.5 -8.5s33.167 -0.5 48.5 1.5c16 2.66699 27.5 6 34.5 10s11.167 6.66699 12.5 8c4 7.33301 10 12 18 14s15.667 0.666992 23 -4s11.833 -10.834 13.5 -18.501s0.5 -15.167 -3.5 -22.5c-4.66699 -7.33301 -10.667 -13.666 -18 -18.999
s-15 -9.83301 -23 -13.5s-16.167 -6.66699 -24.5 -9s-15.5 -3.83301 -21.5 -4.5c-14 -2 -28.667 -3 -44 -3z" />
    <glyph glyph-name="f" unicode="f" horiz-adv-x="382" 
d="M337 330c8.66699 0.666992 16 -1.83594 22 -7.50293s9 -12.5 9 -20.5c0.666992 -8.66699 -1.83301 -16 -7.5 -22s-12.5 -9.33301 -20.5 -10c-24 -1.33301 -50.167 -2.33301 -78.5 -3s-57.833 -1.66699 -88.5 -3l6 -75c2 -24 3.66699 -45.667 5 -65l5 -59
c1.33301 -16 2 -27.667 2 -35c-0.666992 -8.66699 -3.83398 -15.834 -9.50098 -21.501s-12.5 -8.5 -20.5 -8.5h-1c-8 0.666992 -15 3.83398 -21 9.50098s-8.66699 12.834 -8 21.501c0 6 -0.666992 17 -2 33s-2.66602 34.333 -3.99902 55c-2 20.667 -4 43.167 -6 67.5
s-4 50.166 -6 77.499h-4h-36c-12 0 -23.667 0.333008 -35 1c-8.66699 0 -15.834 3 -21.501 9s-8.16699 13.333 -7.5 22c0 8 3 14.833 9 20.5s13.333 8.5 22 8.5c11.333 -0.666992 22.833 -1 34.5 -1h35.5c-3.33301 54.667 -4.33301 109 -3 163s6.66602 102 15.999 144
c13.333 58.667 39.333 95.667 78 111c42.667 18 95.334 6.66699 158.001 -34c6.66699 -4.66699 10.834 -11 12.501 -19s0.166992 -15.667 -4.5 -23s-10.834 -11.666 -18.501 -12.999s-15.167 0.333984 -22.5 5.00098c-44 28.667 -78 38.334 -102 29.001
c-12 -5.33301 -21.167 -14.833 -27.5 -28.5s-11.166 -27.167 -14.499 -40.5c-8.66699 -38.667 -13.5 -84.167 -14.5 -136.5s-0.166992 -104.833 2.5 -157.5c30 0.666992 59.333 1.5 88 2.5s55 2.16699 79 3.5z" />
    <glyph glyph-name="g" unicode="g" horiz-adv-x="513" 
d="M262 -252c-12.667 0 -24.6641 2.99902 -35.9971 8.99902s-21 14.333 -29 25c-9.33301 14 -14.333 29.5 -15 46.5s3 34.167 11 51.5c11.333 20.667 27.166 39.5 47.499 56.5s43.166 32.167 68.499 45.5c0.666992 4 1 7.83301 1 11.5s0.333008 7.83398 1 12.501
c1.33301 13.333 2.5 26.833 3.5 40.5s2.16699 27.5 3.5 41.5c-14.667 -16 -31 -29.667 -49 -41c-28 -17.333 -56.833 -27.166 -86.5 -29.499s-56.834 3.16699 -81.501 16.5c-25.333 13.333 -45.666 35 -60.999 65c-14 30 -21.667 66 -23 108
c-1.33301 39.333 2.66699 75.833 12 109.5s23.666 63.5 42.999 89.5c34 47.333 77.333 76.666 130 87.999c19.333 4 38 5 56 3s34.667 -6.66699 50 -14s28.833 -17.166 40.5 -29.499s20.834 -26.5 27.501 -42.5c3.33301 -8 3.33301 -15.833 0 -23.5s-9 -13.167 -17 -16.5
c-7.33301 -3.33301 -14.833 -3.33301 -22.5 0s-13.167 9 -16.5 17c-8 19.333 -21.5 33.333 -40.5 42s-40.5 10.334 -64.5 5.00098c-37.333 -7.33301 -69 -28.666 -95 -63.999c-30.667 -42 -45 -96.333 -43 -163c0.666992 -30 5.5 -55.5 14.5 -76.5
s21.833 -36.167 38.5 -45.5c14.667 -8 31.334 -10.833 50.001 -8.5s37.667 9.16602 57 20.499c18.667 11.333 36.5 28.166 53.5 50.499s29.167 49.833 36.5 82.5c0 0.666992 0.166992 1.16699 0.5 1.5s0.5 0.833008 0.5 1.5c0.666992 11.333 1.16699 21.833 1.5 31.5
s0.833008 18.167 1.5 25.5c0.666992 4 1 7.33301 1 10s0.333008 5 1 7v6c1.33301 9.33301 5.16602 16.166 11.499 20.499s12.5 6.5 18.5 6.5h1c6.66699 0 13 -2.33301 19 -7s9.66699 -11.667 11 -21v-7c1.33301 -29.333 -1 -57 -7 -83c-2.66699 -36 -5.16699 -72 -7.5 -108
s-4.83301 -70.667 -7.5 -104c15.333 6 30.5 11.5 45.5 16.5l44.5 14.5c8 2 15.5 1 22.5 -3s11.833 -10 14.5 -18c2.66699 -7.33301 2 -14.666 -2 -21.999s-10 -12.333 -18 -15c-21.333 -6 -41.5 -12.5 -60.5 -19.5s-36.833 -14.167 -53.5 -21.5
c-3.33301 -30 -6.83301 -56.333 -10.5 -79s-7.83398 -40.334 -12.501 -53.001c-14.667 -37.333 -38 -58 -70 -62c-2.66699 -0.666992 -6 -1 -10 -1zM300.003 -93.001c-26.667 -18.667 -44.333 -36.666 -53 -53.999c-7.33301 -14 -7.66602 -26 -0.999023 -36
c6 -7.33301 12 -10.333 18 -9c8.66699 1.33301 15.667 9.33301 21 24c2 5.33301 4.16699 13.666 6.5 24.999s5.16602 28 8.49902 50z" />
    <glyph glyph-name="h" unicode="h" horiz-adv-x="441" 
d="M79 0c-10.667 0 -19.332 4.99805 -25.999 14.998c-0.666992 1.33301 -1.5 3.16602 -2.5 5.49902s-1.83301 5.83301 -2.5 10.5s-1.33398 11.334 -2.00098 20.001s-1 20 -1 34c0 16 0.5 32.5 1.5 49.5s2.16699 33.833 3.5 50.5c-0.666992 25.333 -1.5 55.166 -2.5 89.499
l-3.5 120.5c-1.33301 40.667 -2.83301 80.334 -4.5 119.001l-4.5 103.5c-1.33301 30.333 -2.33301 54.833 -3 73.5l-1 28c-0.666992 8.66699 1.83301 16 7.5 22s12.5 9 20.5 9c8.66699 0.666992 16 -1.83301 22 -7.5s9.33301 -12.5 10 -20.5
c0 -0.666992 0.333008 -9.66699 1 -27s1.5 -40.333 2.5 -69s2.33301 -61.5 4 -98.5s3.16699 -75.167 4.5 -114.5c8 16.667 17 31.667 27 45c16 21.333 34.667 36 56 44c24.667 9.33301 50.334 10 77.001 2c50.667 -16 90 -52.333 118 -109
c20.667 -42.667 34.334 -95.334 41.001 -158.001c2.66699 -26 4.16699 -51.167 4.5 -75.5s0 -46 -1 -65s-2.16699 -34.333 -3.5 -46s-2 -17.834 -2 -18.501c-1.33301 -8.66699 -5.16602 -15.5 -11.499 -20.5s-13.833 -6.83301 -22.5 -5.5
c-8 1.33301 -14.667 5.16602 -20 11.499s-7.33301 13.833 -6 22.5c2 18 3.66699 37.667 5 59c1.33301 17.333 1.83301 37.5 1.5 60.5s-1.83301 46.833 -4.5 71.5c-6 56.667 -17.667 102.667 -35 138c-20.667 40.667 -48 66.334 -82 77.001
c-21.333 6.66699 -40 2.66699 -56 -12c-17.333 -15.333 -32.333 -41.166 -45 -77.499s-22.334 -81.166 -29.001 -134.499c-1.33301 -6.66699 -2.33301 -13.167 -3 -19.5l-2 -19.5c0.666992 -7.33301 1 -14.666 1 -21.999v-21c0.666992 -17.333 1 -32.666 1 -45.999v-34
c0 -5.33301 -0.166992 -9.83301 -0.5 -13.5s-0.5 -7.16699 -0.5 -10.5c-0.666992 -2.66699 -1 -5.66699 -1 -9c-2.66699 -10 -6.83398 -16.667 -12.501 -20s-9.83398 -5.33301 -12.501 -6c-1.33301 0 -2.33301 -0.166992 -3 -0.5s-1.66699 -0.5 -3 -0.5z" />
    <glyph glyph-name="i" unicode="i" horiz-adv-x="194" 
d="M170 50c6 -5.33301 9.16992 -12.165 9.50293 -20.498s-2.16699 -15.5 -7.5 -21.5c-6 -6.66699 -13.667 -10 -23 -10c-6.66699 0 -13.334 2.66699 -20.001 8c-19.333 18 -35.333 39.5 -48 64.5s-22.667 51.333 -30 79s-12.5 55.667 -15.5 84s-4.83301 54.833 -5.5 79.5
s-0.5 46.167 0.5 64.5s1.83301 31.833 2.5 40.5c1.33301 8 2.16602 15.5 2.49902 22.5s1.16602 13.167 2.49902 18.5c1.33301 7.33301 3.33301 14.166 6 20.499s7 11.166 13 14.499c7.33301 4.66699 14.833 6.16699 22.5 4.5s13.834 -6.16699 18.501 -13.5
c6 -10.667 6.33301 -21 1 -31c-1.33301 -4 -2.83301 -11.5 -4.5 -22.5s-3 -24.333 -4 -40s-1.5 -33.334 -1.5 -53.001s0.666992 -40.5 2 -62.5c1.33301 -18.667 3.66602 -38.667 6.99902 -60s8 -42.166 14 -62.499s13.667 -39.5 23 -57.5s21 -33.333 35 -46z
M58.0029 608.001c-4.66699 4 -8.16699 8.83301 -10.5 14.5s-4.16602 11.5 -5.49902 17.5c-1.33301 14 2.5 26.167 11.5 36.5s20.5 16.166 34.5 17.499h4c13.333 0 24.333 -4.33301 33 -13c5.33301 -4 9.16602 -8.83301 11.499 -14.5s3.83301 -11.5 4.5 -17.5
c1.33301 -14 -2.33398 -26.167 -11.001 -36.5s-20 -16.166 -34 -17.499h-4c-13.333 0 -24.666 4.33301 -33.999 13z" />
    <glyph glyph-name="j" unicode="j" horiz-adv-x="197" 
d="M168 392c0.666992 -21.333 1.66895 -44.8311 3.00195 -70.498s2.16602 -52.834 2.49902 -81.501s0.166016 -58.334 -0.500977 -89.001s-2.33398 -61.334 -5.00098 -92.001c-6 -68.667 -17 -126.334 -33 -173.001c-18.667 -58.667 -45.667 -102 -81 -130
c-5.33301 -4 -11.333 -6 -18 -6c-10 0 -18 3.66699 -24 11c-5.33301 6.66699 -7.5 14 -6.5 22s4.83301 14.667 11.5 20c26 20.667 46.333 54.334 61 101.001c14.667 42.667 24.667 96 30 160c5.33301 59.333 7.16602 117.833 5.49902 175.5s-3.5 107.5 -5.5 149.5
c-1.33301 24 -2.16602 42.5 -2.49902 55.5s0.166992 23.167 1.5 30.5c0.666992 8 4.16699 14.667 10.5 20s13.833 7.33301 22.5 6c8 -1.33301 14.667 -5.16602 20 -11.499s7.33301 -13.833 6 -22.5c-0.666992 -4.66699 -0.666992 -14 0 -28s1.33398 -29.667 2.00098 -47z
M126.002 589.002c-11.333 0 -21.334 4.33105 -30.001 12.998c-10.667 12 -16 26 -16 42c0.666992 15.333 5.33398 28 14.001 38s19.334 15 32.001 15h1c13.333 0 24.166 -5.16699 32.499 -15.5s12.5 -23.166 12.5 -38.499s-4.33301 -28.166 -13 -38.499
s-19.667 -15.5 -33 -15.5z" />
    <glyph glyph-name="k" unicode="k" horiz-adv-x="539" 
d="M515 58c7.33301 -3.33301 12.8301 -8.66602 16.4971 -15.999s4.16699 -15 1.5 -23c-5.33301 -13.333 -14.666 -20 -27.999 -20c-2 0 -3.83301 0.166992 -5.5 0.5s-3.5 0.833008 -5.5 1.5c-11.333 4 -30.166 14.833 -56.499 32.5l-106.5 74.5l-81 57l-80 53
c-16.667 11.333 -30.667 20.333 -42 27l-28 16c-1.33301 -0.666992 -2.16602 -1 -2.49902 -1s-1.16602 -0.333008 -2.49902 -1c0 -11.333 -0.166992 -22.833 -0.5 -34.5s-0.5 -23.167 -0.5 -34.5c0 -26.667 -0.166992 -53.167 -0.5 -79.5s-0.833008 -53.166 -1.5 -80.499
c0 -8 -2.83301 -15 -8.5 -21s-12.834 -9 -21.501 -9c-8 0.666992 -15 3.83398 -21 9.50098s-9 12.834 -9 21.501c0.666992 27.333 1.16699 54.166 1.5 80.499s0.5 52.5 0.5 78.5c0.666992 79.333 1.5 161.666 2.5 246.999s2.16699 180 3.5 284c0 8 3 14.833 9 20.5
s13 8.5 21 8.5c8.66699 0 15.834 -2.83301 21.501 -8.5s8.5 -12.834 8.5 -21.501c-0.666992 -74.667 -1.33398 -143.834 -2.00098 -207.501l-2 -184.5c1.33301 -0.666992 2.16602 -1 2.49902 -1s1.16602 -0.333008 2.49902 -1c10.667 5.33301 25.834 13.833 45.501 25.5
s45.834 28.5 78.501 50.5l45.5 31.5l38 27.5l27 20l10.5 8c6.66699 5.33301 14 7.33301 22 6s14.667 -5.33301 20 -12s7.33301 -14 6 -22s-5.33301 -14.667 -12 -20l-11.5 -8.5l-30.5 -22l-43 -31c-16 -11.667 -32.667 -23.167 -50 -34.5
c-15.333 -10.667 -30 -20.334 -44 -29.001l-38 -24c6.66699 -3.33301 15 -8.33301 25 -15l86 -58l89 -62l46 -32.5l45 -31c14 -9.66699 26.333 -17.667 37 -24s18 -10.166 22 -11.499z" />
    <glyph glyph-name="l" unicode="l" horiz-adv-x="137" 
d="M88 0c-4.66699 0 -9.00195 1.00684 -13.002 3.00684c-11.333 5.33301 -19.666 14.166 -24.999 26.499s-9.33301 23.5 -12 33.5c-3.33301 11.333 -5.83301 24.166 -7.5 38.499s-3.16699 30.833 -4.5 49.5c-4 59.333 -4 138.666 0 237.999
c1.33301 42 3.16602 82.833 5.49902 122.5s4.66602 75.167 6.99902 106.5s4.33301 56.666 6 75.999l2.5 29c0.666992 8.66699 4.16699 15.667 10.5 21s13.5 7.33301 21.5 6c8.66699 -0.666992 15.667 -4.16699 21 -10.5s7.33301 -13.5 6 -21.5
c0 -0.666992 -0.833008 -9.83398 -2.5 -27.501s-3.5 -41.167 -5.5 -70.5l-6.5 -100c-2.33301 -37.333 -4.16602 -76 -5.49902 -116c-2 -47.333 -3 -90 -3 -128s0.666992 -72 2 -102c0.666992 -22.667 2 -41.334 4 -56.001s3.83301 -26.334 5.5 -35.001
s3.33398 -15 5.00098 -19s2.83398 -6.66699 3.50098 -8c6.66699 -4 11.167 -9.5 13.5 -16.5s1.83301 -14.167 -1.5 -21.5c-5.33301 -12 -14.333 -18 -27 -18z" />
    <glyph glyph-name="m" unicode="m" horiz-adv-x="538" 
d="M91 471l-0.000976562 -1c0 -2 0.333008 -6 1 -12s1.33398 -13 2.00098 -21s1.33398 -16.833 2.00098 -26.5s1.66699 -20.167 3 -31.5c6 18.667 12.667 34.667 20 48c4.66699 9.33301 9.33398 17.666 14.001 24.999s9.66699 13.666 15 18.999c16 14.667 32 22 48 22
c5.33301 0 12 -1.33301 20 -4s16 -8 24 -16c9.33301 -10 17.5 -23.667 24.5 -41s13.167 -39.666 18.5 -66.999c2 -8.66699 3.66699 -17.834 5 -27.501l4 -30.5c5.33301 19.333 10.5 37 15.5 53s10.167 30.333 15.5 43c3.33301 8.66699 7.5 18 12.5 28
s10.833 19.167 17.5 27.5s14.167 15.166 22.5 20.499s17.833 8 28.5 8c5.33301 0 11.5 -1 18.5 -3s14.167 -6.66699 21.5 -14c4.66699 -5.33301 9.83398 -12.666 15.501 -21.999s11.167 -23.166 16.5 -41.499s10.333 -42.333 15 -72s8.66699 -66.834 12 -111.501
c1.33301 -24 2.33301 -47 3 -69s1.16699 -41.5 1.5 -58.5s0.5 -30.833 0.5 -41.5v-17c0 -8 -3 -14.833 -9 -20.5s-13 -8.5 -21 -8.5c-8.66699 0 -15.834 3 -21.501 9s-8.5 13 -8.5 21v16.5c0 11 -0.166992 25.167 -0.5 42.5s-0.833008 37.333 -1.5 60s-2 46 -4 70
c-2.66699 36.667 -5.83398 67.167 -9.50098 91.5s-7.33398 44 -11.001 59s-7.16699 26 -10.5 33s-6 11.833 -8 14.5c-2.66699 -2.66699 -6.66699 -8.33398 -12 -17.001s-11.666 -23 -18.999 -43c-6.66699 -17.333 -13 -37.5 -19 -60.5s-12 -48.833 -18 -77.5
c-5.33301 -24 -10 -47.667 -14 -71l-10.5 -62c-3 -18 -5.16699 -32.5 -6.5 -43.5l-2 -16.5c-1.33301 -7.33301 -4.83301 -13.5 -10.5 -18.5s-12.167 -7.5 -19.5 -7.5h-2c-8 0.666992 -14.667 4 -20 10s-8 13 -8 21l0.5 17c0.333008 11.333 0.5 26 0.5 44
s-0.333008 38.667 -1 62s-2 47.333 -4 72c-2.66699 41.333 -6.16699 74.833 -10.5 100.5s-8.66602 45.5 -12.999 59.5s-8.33301 23.5 -12 28.5s-5.83398 8.16699 -6.50098 9.5c-2 -0.666992 -5.83301 -4.16699 -11.5 -10.5s-12.5 -19.5 -20.5 -39.5
c-6.66699 -16 -13 -35 -19 -57s-11.667 -46 -17 -72c-2.66699 -13.333 -5 -27 -7 -41l-6 -41c2 -34 3 -62 3 -84c0 -13.333 -0.166992 -24.333 -0.5 -33s-1 -15.667 -2 -21s-2.5 -9.66602 -4.5 -12.999s-4 -6.33301 -6 -9c-6 -7.33301 -14 -11 -24 -11
c-3.33301 0 -9 1.83301 -17 5.5s-13.333 13.167 -16 28.5c-1.33301 3.33301 -2 7.33301 -2 12v16c0 13.333 0.666992 29.5 2 48.5s3.66602 39.833 6.99902 62.5c-1.33301 12 -2.33301 25 -3 39c-1.33301 20.667 -2.83301 41.334 -4.5 62.001s-3.16699 40.667 -4.5 60
s-2.83301 37.333 -4.5 54s-3.16699 31 -4.5 43l-2.5 31c-0.333008 4 -0.5 6.66699 -0.5 8c0 8.66699 3 15.834 9 21.501s13 8.5 21 8.5s15 -2.83301 21 -8.5s9 -12.5 9 -20.5z" />
    <glyph glyph-name="n" unicode="n" horiz-adv-x="380" 
d="M67 -3c-10 0 -17.999 4.00293 -23.999 12.0029c-4.66699 5.33301 -7.33398 12.166 -8.00098 20.499s0.666016 22.5 3.99902 42.5c0 5.33301 1 11.666 3 18.999c0 17.333 -0.166992 39.666 -0.5 66.999s-1.16602 63 -2.49902 107c-0.666992 25.333 -1.5 50 -2.5 74
s-1.83301 45.333 -2.5 64s-1.33398 33.834 -2.00098 45.501l-1 17.5c0 8 2.83301 15 8.5 21s12.5 9.33301 20.5 10c8.66699 0.666992 16 -1.83301 22 -7.5s9 -12.834 9 -21.501c0.666992 -13.333 1.33398 -28 2.00098 -44c0.666992 -13.333 1.16699 -29.166 1.5 -47.499
s1.16602 -37.833 2.49902 -58.5l12 34c4 11.333 8.66699 22.333 14 33c12 28.667 25.667 52 41 70c18.667 22.667 39.334 35 62.001 37c6 0 13.333 -1 22 -3s17.667 -7.66699 27 -17c21.333 -20.667 38 -57 50 -109c8.66699 -38.667 15.667 -87.334 21 -146.001
c2 -24 3.5 -47.167 4.5 -69.5s1.83301 -42 2.5 -59s1 -30.833 1 -41.5v-17c0 -8.66699 -3 -15.834 -9 -21.501s-13 -8.5 -21 -8.5c-8.66699 0 -15.834 2.83301 -21.501 8.5s-8.5 12.834 -8.5 21.501v15.5c0 10.333 -0.333008 23.833 -1 40.5s-1.5 36 -2.5 58
s-2.5 44.667 -4.5 68c-3.33301 40.667 -7.5 74.5 -12.5 101.5s-10 48.5 -15 64.5s-9.66699 27.833 -14 35.5s-7.83301 12.834 -10.5 15.501c-2 2 -3.66699 3 -5 3c-3.33301 0 -9 -4.33301 -17 -13c-14 -15.333 -28.167 -41.166 -42.5 -77.499
s-28.166 -79.833 -41.499 -130.5c-6.66699 -24.667 -12 -47.667 -16 -69s-7.66699 -40 -11 -56v-23c0 -6.66699 -0.333008 -12.667 -1 -18c0 -4 -0.166992 -7.33301 -0.5 -10s-0.833008 -5.33398 -1.5 -8.00098c-2 -11.333 -5.66699 -18.833 -11 -22.5
s-10 -5.83398 -14 -6.50098c-1.33301 -0.666992 -3.33301 -1 -6 -1z" />
    <glyph glyph-name="o" unicode="o" horiz-adv-x="455" 
d="M215 -1c-57.333 0 -103.333 18.998 -138 56.998c-20.667 24 -35.667 54.333 -45 91c-7.33301 33.333 -9 68.333 -5 105c3.33301 30.667 10.333 60.5 21 89.5s24.334 54.5 41.001 76.5c17.333 24 38 43.333 62 58c26.667 15.333 54 23 82 23h5
c29.333 -1.33301 56.333 -9.66602 81 -24.999s46 -37 64 -65c15.333 -24 27.333 -51.167 36 -81.5s12.667 -61.166 12 -92.499s-5.33398 -60.5 -14.001 -87.5s-20.667 -50.833 -36 -71.5c-38 -49.333 -91.333 -75 -160 -77h-6zM233 438.998
c-22 0 -41.167 -6.1709 -57.5 -18.5039s-29.166 -25.166 -38.499 -38.499c-13.333 -18 -24.333 -39 -33 -63s-14.667 -48.667 -18 -74c-3.33301 -31.333 -1.83301 -59.833 4.5 -85.5s16.833 -46.834 31.5 -63.501c22 -24.667 53 -37 93 -37h5
c27.333 0.666992 50.5 6.33398 69.5 17.001s34.5 24.334 46.5 41.001s20.833 35.334 26.5 56.001s8.5 41.334 8.5 62.001c0.666992 26 -2.33301 51.333 -9 76s-16.334 46.667 -29.001 66c-9.33301 14 -21.833 27.667 -37.5 41s-35.5 20.333 -59.5 21h-3z" />
    <glyph glyph-name="p" unicode="p" horiz-adv-x="428" 
d="M86 -254c-10 0 -18.3311 4.33594 -24.998 13.0029c-2.66699 3.33301 -4.66699 7.83301 -6 13.5s-2.66602 14.167 -3.99902 25.5c-0.666992 7.33301 -1.16699 15.666 -1.5 24.999s-0.833008 19.666 -1.5 30.999c-0.666992 26 -0.666992 53.667 0 83
s1.66699 58.666 3 87.999c0.666992 6.66699 1.16699 13.334 1.5 20.001s0.833008 13.334 1.5 20.001l-2 38.5l-2 40.5c-2 40.667 -4.16699 80 -6.5 118l-6.5 102c-2 30 -3.66699 54 -5 72s-2 27.333 -2 28c-0.666992 8 1.66602 15.167 6.99902 21.5s12.333 9.83301 21 10.5
s16 -1.66602 22 -6.99902s9.33301 -12.333 10 -21c0 -0.666992 0.833008 -13.334 2.5 -38.001l6.5 -97c8 26 17 48.667 27 68c14.667 28.667 30.667 49.667 48 63c21.333 18 45 26.667 71 26c31.333 -0.666992 59.833 -11.834 85.5 -33.501s46.167 -52.5 61.5 -92.5
c10 -26 17.167 -54 21.5 -84s5.16602 -59.333 2.49902 -88c-2 -31.333 -8 -59.333 -18 -84c-11.333 -28 -26.333 -51 -45 -69c-24.667 -24 -54.334 -37.333 -89.001 -40c-34.667 -4 -74.334 3.66699 -119.001 23c-7.33301 3.33301 -12.5 9 -15.5 17s-2.83301 15.667 0.5 23
s8.83301 12.5 16.5 15.5s15.5 2.83301 23.5 -0.5c62.667 -27.333 110 -25.333 142 6c12 11.333 21.833 26.833 29.5 46.5s12.834 42.167 15.501 67.5c2 24 1.16699 48.667 -2.5 74s-9.83398 49 -18.501 71c-2.66699 6.66699 -6.5 14.834 -11.5 24.501
s-11.333 19.167 -19 28.5s-16.667 17.5 -27 24.5s-21.833 10.5 -34.5 10.5c-3.33301 0 -9.16602 -1 -17.499 -3s-17.833 -10 -28.5 -24c-21.333 -26.667 -39 -68.834 -53 -126.501s-24.333 -128.167 -31 -211.5c2 -36.667 3.5 -69.834 4.5 -99.501
s1.83301 -56.167 2.5 -79.5c1.33301 -35.333 1.33301 -62 0 -80c0 -5.33301 -0.166992 -10.166 -0.5 -14.499s-0.833008 -8.16602 -1.5 -11.499c-0.666992 -2.66699 -1 -5 -1 -7s-0.666992 -3.66699 -2 -5c-3.33301 -8.66699 -7.5 -14.334 -12.5 -17.001
s-8.83301 -4.33398 -11.5 -5.00098h-6z" />
    <glyph glyph-name="q" unicode="q" horiz-adv-x="405" 
d="M327 -251c-3.33301 0 -5.66895 0.336914 -7.00195 1.00391c-2.66699 0.666992 -6.5 2.33398 -11.5 5.00098s-9.16699 8.33398 -12.5 17.001c-0.666992 1.33301 -1 3 -1 5s-0.333008 4 -1 6c-0.666992 3.33301 -1.16699 7 -1.5 11s-0.5 8.66699 -0.5 14
c-1.33301 18 -1.33301 44 0 78c0 28 0.666992 61.333 2 100s3 82.334 5 131.001c0 8 0.166992 16.167 0.5 24.5s0.833008 16.5 1.5 24.5c-6.66699 59.333 -15.667 109.833 -27 151.5s-25.333 73.167 -42 94.5c-9.33301 12.667 -18 20.334 -26 23.001s-14.667 4 -20 4
c-13.333 -0.666992 -25 -3.66699 -35 -9s-18.667 -11.833 -26 -19.5s-13.666 -15.834 -18.999 -24.501s-9.66602 -16.334 -12.999 -23.001c-9.33301 -20 -15.833 -41.5 -19.5 -64.5s-4.83398 -45.667 -3.50098 -68s5.33301 -43.5 12 -63.5s15.667 -37.333 27 -52
c31.333 -40 77 -54 137 -42c8 2 15.5 0.666992 22.5 -4s11.167 -11 12.5 -19s-0.166992 -15.5 -4.5 -22.5s-10.5 -11.167 -18.5 -12.5c-41.333 -8.66699 -79.666 -7.33398 -114.999 3.99902c-31.333 10.667 -58.333 30 -81 58c-15.333 19.333 -27.5 42 -36.5 68
s-14.167 54 -15.5 84c-1.33301 28 0.333984 55.667 5.00098 83s12.334 52.666 23.001 75.999c15.333 32 34.333 57.333 57 76c25.333 21.333 54.666 33 87.999 35c26 1.33301 49.667 -6.66699 71 -24c17.333 -14.667 33 -34.667 47 -60c1.33301 -3.33301 3 -6.83301 5 -10.5
s3.66699 -7.5 5 -11.5c1.33301 17.333 2.16602 31.166 2.49902 41.499s0.5 15.833 0.5 16.5c0.666992 8.66699 4 15.667 10 21s13.333 7.66602 22 6.99902c8 -0.666992 14.833 -4 20.5 -10s8.16699 -13 7.5 -21c0 -0.666992 -0.333008 -8.66699 -1 -24s-1.66699 -36 -3 -62
l-4.5 -89c-1.66699 -33.333 -3.16699 -68.333 -4.5 -105c2 -23.333 3.66699 -46.333 5 -69s2.33301 -44.334 3 -65.001c1.33301 -30 1.66602 -60 0.999023 -90s-1.66699 -58.333 -3 -85c-1.33301 -20.667 -2.5 -37 -3.5 -49s-2.33301 -21.333 -4 -28
s-3.16699 -11.334 -4.5 -14.001s-2.66602 -5 -3.99902 -7c-6 -8 -14 -12 -24 -12z" />
    <glyph glyph-name="r" unicode="r" horiz-adv-x="358" 
d="M78 0c-7.33301 0 -13.833 2.66699 -19.5 8s-9.16699 11.666 -10.5 18.999c-5.33301 54 -8 102.167 -8 144.5s2.66699 80.166 8 113.499c0.666992 3.33301 1.16699 6.83301 1.5 10.5s0.833008 7.16699 1.5 10.5c-1.33301 26 -3.33301 52 -6 78s-7 52.667 -13 80
c-2 8 -0.666992 15.5 4 22.5s11 11.167 19 12.5c8 2 15.5 0.833008 22.5 -3.5s11.5 -10.833 13.5 -19.5c2 -9.33301 3.83301 -18.5 5.5 -27.5s3.16699 -18.167 4.5 -27.5c3.33301 3.33301 6.33301 6.5 9 9.5s5.66699 6.16699 9 9.5c48.667 42.667 119.334 53.667 212.001 33
c8 -2 14.167 -6.5 18.5 -13.5s5.83301 -14.5 4.5 -22.5c-2 -8 -6.5 -14.167 -13.5 -18.5s-14.5 -5.83301 -22.5 -4.5c-72.667 16.667 -125.667 10.334 -159 -18.999c-22 -19.333 -37.667 -50.666 -47 -93.999c1.33301 -30 1.66602 -59.667 0.999023 -89
s-1.66699 -58.666 -3 -87.999c-0.666992 -15.333 -1.16699 -31 -1.5 -47s-0.5 -31.667 -0.5 -47c0 -8 -2.83301 -14.833 -8.5 -20.5s-12.5 -8.83398 -20.5 -9.50098h-1z" />
    <glyph glyph-name="s" unicode="s" horiz-adv-x="296" 
d="M149 0c-8 0 -15.334 0.998047 -22.001 2.99805c-19.333 4 -36.666 12.667 -51.999 26c-5.33301 4.66699 -11.333 11.5 -18 20.5s-12.167 20.167 -16.5 33.5s-7.16602 29 -8.49902 47s0.666992 39 6 63c2 8 6.5 14.333 13.5 19s14.5 6 22.5 4
c8 -1.33301 14.167 -5.5 18.5 -12.5s5.83301 -14.5 4.5 -22.5c-5.33301 -24.667 -6.5 -46.334 -3.5 -65.001s10.167 -33 21.5 -43c15.333 -12.667 31.666 -16 48.999 -10c19.333 6 31.666 21 36.999 45c2.66699 12 1.83398 24.833 -2.49902 38.5s-10.5 27.334 -18.5 41.001
s-17.5 27.5 -28.5 41.5l-32.5 41c-11.333 13.333 -22 26.5 -32 39.5s-18.667 25.833 -26 38.5s-12.833 25.167 -16.5 37.5s-4.5 24.833 -2.5 37.5c4 26.667 18 47.334 42 62.001c20 12 43.333 17 70 15c15.333 -1.33301 29.833 -4.83301 43.5 -10.5
s25.834 -13.5 36.501 -23.5c26 -24 39 -54 39 -90c0 -8 -2.83301 -15 -8.5 -21s-12.834 -9 -21.501 -9s-15.834 2.83301 -21.501 8.5s-8.5 12.834 -8.5 21.501c0 12 -2.16699 21.833 -6.5 29.5s-9.83301 14 -16.5 19s-13.667 8.66699 -21 11s-14 3.83301 -20 4.5
c-8 0.666992 -17.5 -0.666016 -28.5 -3.99902s-17.5 -10.666 -19.5 -21.999c-0.666992 -3.33301 -0.166992 -8 1.5 -14s5.83398 -14.667 12.501 -26c6.66699 -10 14.334 -20.5 23.001 -31.5l27 -34.5l39 -49c13.333 -16.667 24.666 -33.834 33.999 -51.501
s16.333 -35.834 21 -54.501s5 -37.667 1 -57c-4.66699 -22 -14.334 -41.333 -29.001 -58c-13.333 -15.333 -29.666 -26 -48.999 -32c-11.333 -4 -22.333 -6 -33 -6z" />
    <glyph glyph-name="t" unicode="t" horiz-adv-x="391" 
d="M378 295c5.33301 -69.333 -1.32812 -127.329 -19.9951 -173.996c-17.333 -44 -43.333 -76.667 -78 -98c-25.333 -16 -52 -24 -80 -24c-20.667 0 -40.667 5.33301 -60 16c-31.333 18.667 -50 57.5 -56 116.5s-6.33301 139.5 -1 241.5l-33 -4
c-0.666992 0 -1.33398 -0.166992 -2.00098 -0.5s-1.33398 -0.5 -2.00098 -0.5c-7.33301 0 -13.833 2.66699 -19.5 8s-9.16699 11.666 -10.5 18.999c-1.33301 8 0.666992 15.167 6 21.5s12.333 10.166 21 11.499l43 5c0.666992 10.667 1.16699 21.167 1.5 31.5
s1.16602 21.166 2.49902 32.499c1.33301 28 2.83301 56.167 4.5 84.5s3.16699 58.166 4.5 89.499c0.666992 8 4 14.833 10 20.5s13 8.16699 21 7.5c8.66699 -0.666992 15.667 -4 21 -10s8 -13 8 -21c-1.33301 -31.333 -3 -61.166 -5 -89.499s-3.66699 -56.5 -5 -84.5
c-0.666992 -9.33301 -1.16699 -18.333 -1.5 -27s-0.833008 -17.334 -1.5 -26.001l115 14c8.66699 1.33301 16.167 -0.666992 22.5 -6s10.166 -12 11.499 -20c1.33301 -8.66699 -0.666992 -16.167 -6 -22.5s-12 -10.166 -20 -11.499l-126 -15
c-2 -38.667 -3.33301 -74 -4 -106s-0.333984 -61 0.999023 -87c0.666992 -21.333 2 -39.333 4 -54s4.5 -26.5 7.5 -35.5s6.16699 -15.833 9.5 -20.5s6.66602 -8 9.99902 -10c8 -5.33301 19 -7.83301 33 -7.5s28.667 5.16602 44 14.499c27.333 16.667 47 43.834 59 81.501
s15.667 82.5 11 134.5c-1.33301 8 0.833984 15.167 6.50098 21.5s12.5 9.83301 20.5 10.5c8.66699 1.33301 16 -0.833984 22 -6.50098s9.66699 -12.5 11 -20.5z" />
    <glyph glyph-name="u" unicode="u" horiz-adv-x="405" 
d="M178 0c-30 0 -55.3301 11.334 -75.9971 34.001c-11.333 12.667 -21.5 28.5 -30.5 47.5s-16.5 42.167 -22.5 69.5c-4.66699 20 -8.66699 42 -12 66s-5.66602 50 -6.99902 78c-1.33301 23.333 -2 45.5 -2 66.5s0.166992 39.5 0.5 55.5s0.833008 28.833 1.5 38.5
s1 14.834 1 15.501c0.666992 8.66699 4 15.667 10 21s13.333 7.66602 22 6.99902c8 -0.666992 14.833 -4 20.5 -10s8.16699 -13.333 7.5 -22l-1 -14c-0.666992 -9.33301 -1.16699 -21.833 -1.5 -37.5s-0.5 -33.667 -0.5 -54s0.666992 -41.833 2 -64.5
c3.33301 -56 9.66602 -103 18.999 -141s21.666 -65.333 36.999 -82c10 -10 20.667 -15 32 -15c15.333 0 30.666 9.66699 45.999 29s29.166 46.666 41.499 81.999s22.166 77 29.499 125c1.33301 6.66699 2.33301 13 3 19s1.33398 11.667 2.00098 17
c0 13.333 -0.166992 25.333 -0.5 36s-0.5 20.667 -0.5 30c-0.666992 11.333 -0.833984 21.333 -0.500977 30s0.5 16 0.5 22c0.666992 9.33301 1.83398 17.833 3.50098 25.5s6.16699 14.167 13.5 19.5c10 6.66699 20.333 7.33398 31 2.00098
c7.33301 -4 12.166 -9.16699 14.499 -15.5s3.5 -10.833 3.5 -13.5c1.33301 -6.66699 2 -13.667 2 -21c0.666992 -8 0.833984 -17.167 0.500977 -27.5s-0.833008 -21.166 -1.5 -32.499c-0.666992 -7.33301 -1.5 -15.833 -2.5 -25.5s-2.16699 -20.167 -3.5 -31.5
c0.666992 -13.333 1.16699 -27.833 1.5 -43.5s1.16602 -32.834 2.49902 -51.501l4 -73.5l3.5 -63.5c1 -18.667 1.83301 -33.667 2.5 -45l1 -17c0.666992 -8 -1.83301 -15.167 -7.5 -21.5s-12.5 -9.83301 -20.5 -10.5c-8.66699 -0.666992 -16 1.83301 -22 7.5
s-9.33301 12.5 -10 20.5c0 0.666992 -0.5 9.16699 -1.5 25.5s-2.16699 37.166 -3.5 62.499c-3.33301 -9.33301 -7 -17.666 -11 -24.999l-12 -22c-7.33301 -10.667 -14.666 -20.334 -21.999 -29.001s-15 -16 -23 -22c-20 -14 -41.333 -21 -64 -21z" />
    <glyph glyph-name="v" unicode="v" horiz-adv-x="374" 
d="M175 -1l-2.00098 0.000976562c-19.333 1.33301 -35.333 12.666 -48 33.999c-9.33301 13.333 -18 32 -26 56c-14.667 39.333 -28.334 91 -41.001 155c-6 27.333 -11.167 54.166 -15.5 80.499l-11.5 70.5c-3.33301 20.667 -5.83301 37.5 -7.5 50.5l-2.5 19.5
c-1.33301 8.66699 0.5 16.167 5.5 22.5s11.5 10.166 19.5 11.499c8.66699 1.33301 16.167 -0.666992 22.5 -6s10.166 -12 11.499 -20l2.5 -17l6.5 -45c2.66699 -18.667 6 -40 10 -64s8.66699 -48.667 14 -74c6 -30 12 -56.833 18 -80.5s11.667 -44.834 17 -63.501
c6 -19.333 11.333 -33.833 16 -43.5s8.33398 -16.5 11.001 -20.5c3.33301 4 7.5 10.667 12.5 20s11.167 23.333 18.5 42c13.333 36 28.333 83.667 45 143c6.66699 24.667 12.834 48.834 18.501 72.501s10.5 44.834 14.5 63.501l9.5 45l3.5 17c2 8 6.33301 14.333 13 19
s14.334 6.33398 23.001 5.00098c8 -2 14.167 -6.5 18.5 -13.5s5.83301 -14.5 4.5 -22.5l-4 -19.5c-2.66699 -13 -6.33398 -29.667 -11.001 -50l-16.5 -70c-6.33301 -26.333 -13.166 -52.833 -20.499 -79.5c-18 -65.333 -35 -116.333 -51 -153
c-5.33301 -12 -10.333 -22.5 -15 -31.5s-9.33398 -16.833 -14.001 -23.5c-15.333 -20 -31.666 -30 -48.999 -30z" />
    <glyph glyph-name="w" unicode="w" horiz-adv-x="521" 
d="M383 -4c-15.333 0 -28.5 7.00391 -39.5 21.0039s-20.5 29.333 -28.5 46c-7.33301 14.667 -14.833 31.667 -22.5 51s-15.834 41.666 -24.501 66.999c-3.33301 9.33301 -6.33301 18.333 -9 27s-5.66699 17.667 -9 27c-1.33301 -8 -3 -15.833 -5 -23.5l-6 -23.5
c-6 -24.667 -12 -46.667 -18 -66s-11.667 -36 -17 -50c-7.33301 -18 -15.5 -34.167 -24.5 -48.5s-21.167 -22.166 -36.5 -23.499c-3.33301 -0.666992 -8.16602 -0.166992 -14.499 1.5s-12.5 5.83398 -18.5 12.501c-4.66699 4.66699 -9 11.667 -13 21
c-6 12.667 -12 30.667 -18 54c-9.33301 38.667 -18.333 90 -27 154c-4 27.333 -7.5 54.166 -10.5 80.499s-5.5 49.666 -7.5 69.999l-5 50l-2 19.5c-1.33301 8.66699 0.666992 16 6 22s12.333 9.66699 21 11c8 0.666992 15.167 -1.66602 21.5 -6.99902s9.83301 -12 10.5 -20
l1.5 -17c1 -11.333 2.5 -26 4.5 -44l7 -62c2.66699 -23.333 5.66699 -47.333 9 -72c4 -30 8 -56.833 12 -80.5l11 -63.5c2.66699 -11.333 5 -20.833 7 -28.5s3.66699 -14.5 5 -20.5c5.33301 11.333 11.333 27.666 18 48.999s14.667 50.666 24 87.999
c4.66699 18.667 8.83398 36.667 12.501 54l9.5 46l6.5 32.5l2.5 12.5c1.33301 7.33301 4.5 13.166 9.5 17.499s11.167 6.83301 18.5 7.5s13.666 -1.16602 18.999 -5.49902s9 -9.83301 11 -16.5l3.5 -13l9.5 -34c4 -14 8.83301 -29.833 14.5 -47.5l17.5 -54.5
c14.667 -44 27 -77.167 37 -99.5s17.667 -38.166 23 -47.499c4 12 9.33301 33.333 16 64s13.667 76.667 21 138l8 72.5c2.66699 23.667 4.66699 44.5 6 62.5s2.5 32.667 3.5 44l1.5 17c0.666992 8.66699 4 15.667 10 21s13.333 7.66602 22 6.99902
c8 -0.666992 14.833 -4 20.5 -10s8.16699 -13.333 7.5 -22l-1.5 -19.5c-1 -13 -2.5 -29.667 -4.5 -50l-7 -70c-2.66699 -26.333 -5.66699 -53.166 -9 -80.499l-13 -87.5c-4 -25.667 -8.33301 -47.834 -13 -66.501c-6 -24.667 -12 -43.334 -18 -56.001
c-2 -4.66699 -6.33301 -11.834 -13 -21.501s-16.667 -15.167 -30 -16.5h-3z" />
    <glyph glyph-name="x" unicode="x" horiz-adv-x="400" 
d="M366 452c-19.333 -28 -38.6709 -57.8311 -58.0039 -89.498l-61 -98.5c-3.33301 -6 -7 -11.833 -11 -17.5s-7.66699 -11.5 -11 -17.5c17.333 -32.667 36 -64.167 56 -94.5s42.667 -58.5 68 -84.5c5.33301 -6 7.83301 -13.167 7.5 -21.5s-3.5 -15.166 -9.5 -20.499
c-5.33301 -6 -12 -9 -20 -9c-8.66699 0 -16 3.33301 -22 10c-22.667 24 -43.5 49.667 -62.5 77s-36.833 55.666 -53.5 84.999l-52 -81.5l-53 -77.5c-5.33301 -8 -13.333 -12 -24 -12c-6 0 -11.667 1.66699 -17 5c-7.33301 5.33301 -11.666 12 -12.999 20
s0.666992 15.333 6 22l60 90l60 94c-7.33301 13.333 -14.166 26.5 -20.499 39.5l-19.5 38.5l-38 75c-12 24 -24.667 46.667 -38 68c-4.66699 7.33301 -6 15 -4 23s6.66699 14.333 14 19c7.33301 4 14.833 5.16699 22.5 3.5s13.834 -6.16699 18.501 -13.5
c13.333 -22.667 26.5 -46.334 39.5 -71.001l39.5 -77c3.33301 -7.33301 7 -14.833 11 -22.5l12 -23.5c1.33301 2.66699 2.33301 4.33398 3 5.00098l62 99.5l59 91.5c4.66699 7.33301 11 11.666 19 12.999s15.333 -0.333984 22 -5.00098
c7.33301 -4.66699 11.833 -11 13.5 -19s-0.166016 -15.667 -5.49902 -23z" />
    <glyph glyph-name="y" unicode="y" horiz-adv-x="403" 
d="M206 -251l-8.99902 0.00585938c-19.333 1.33301 -38.5 6.5 -57.5 15.5s-35.833 21.167 -50.5 36.5c-32.667 34 -49.667 74.333 -51 121c-0.666992 8.66699 1.83301 15.834 7.5 21.501s12.834 8.83398 21.501 9.50098c8.66699 0 15.834 -2.83301 21.501 -8.5
s8.83398 -12.5 9.50098 -20.5c0.666992 -16.667 4.16699 -32 10.5 -46s14.333 -26 24 -36s20.5 -17.833 32.5 -23.5s24 -8.83398 36 -9.50098c7.33301 -0.666992 16.166 0.333008 26.499 3s20.5 8.66699 30.5 18c20.667 19.333 34 49.666 40 90.999
c4.66699 30 7.83398 61.333 9.50098 94s2.5 66 2.5 100c-4.66699 -10 -10.334 -20.667 -17.001 -32c-15.333 -26 -32.333 -46 -51 -60c-22.667 -16.667 -47.667 -25 -75 -25c-34 1.33301 -62 15.333 -84 42c-39.333 47.333 -58 134.666 -56 261.999
c0.666992 22.667 1.66699 44.167 3 64.5s2.83301 38.333 4.5 54s3.33398 28.167 5.00098 37.5s2.5 14.666 2.5 15.999c1.33301 8 5.33301 14.5 12 19.5s14 6.83301 22 5.5s14.5 -5.33301 19.5 -12s6.83301 -14.334 5.5 -23.001l-2 -13.5c-1.33301 -9 -2.83301 -21 -4.5 -36
s-3.16699 -32.333 -4.5 -52s-2.33301 -40.5 -3 -62.5c-1.33301 -54 1.66699 -100.167 9 -138.5s18.333 -66.166 33 -83.499c10.667 -12.667 23.667 -19.334 39 -20.001c21.333 0 41 11.333 59 34c15.333 19.333 29.166 46.666 41.499 81.999s22.166 76 29.499 122
c1.33301 6 2.16602 11.833 2.49902 17.5s0.833008 11.167 1.5 16.5v7c-1.33301 17.333 -2.33301 33.5 -3 48.5s-1 28.167 -1 39.5c-0.666992 16.667 -0.333984 29.334 0.999023 38.001s4.66602 16 9.99902 22c6.66699 6.66699 14.334 10 23.001 10
c12 0 21.333 -5.33301 28 -16c0.666992 -1.33301 1.5 -3.16602 2.5 -5.49902s2 -5.83301 3 -10.5s1.66699 -10.834 2 -18.501s0.5 -17.834 0.5 -30.501s-0.5 -26.334 -1.5 -41.001s-2.16699 -29.667 -3.5 -45l4.5 -96c1.66699 -34.667 2.5 -70.167 2.5 -106.5
s-1 -72.833 -3 -109.5s-5.33301 -71.334 -10 -104.001c-8 -55.333 -27.333 -97.333 -58 -126c-26 -24.667 -57 -37 -93 -37z" />
    <glyph glyph-name="z" unicode="z" horiz-adv-x="351" 
d="M183 0c-44.667 0 -79.001 3.83203 -103.001 11.499s-39.667 20.167 -47 37.5c-5.33301 12.667 -5.16602 26.834 0.500977 42.501s14.5 33.167 26.5 52.5c10 16 21.667 33.333 35 52l42 59l41.5 58c13.667 19.333 25.834 37.666 36.501 54.999
c11.333 18.667 19 32.667 23 42s6.66699 15.666 8 18.999c-4.66699 2.66699 -13.834 5.5 -27.501 8.5s-36.167 3.83301 -67.5 2.5c-11.333 -1.33301 -22.166 -2.5 -32.499 -3.5s-19.166 -2.16699 -26.499 -3.5c-9.33301 -1.33301 -17.666 -2.66602 -24.999 -3.99902
c-8 -2 -15.5 -0.666992 -22.5 4s-11.5 11 -13.5 19c-1.33301 8 0.166992 15.5 4.5 22.5s10.833 11.167 19.5 12.5c0.666992 0.666992 10.167 2.5 28.5 5.5s39.833 5.16699 64.5 6.5c71.333 4.66699 119.666 -6 144.999 -32c12.667 -14 15.667 -34 9 -60
c-4.66699 -13.333 -13.667 -32 -27 -56c-11.333 -19.333 -25 -40.333 -41 -63l-49 -69l-36.5 -50.5c-11.667 -16.333 -22.167 -31.833 -31.5 -46.5s-15.666 -25.834 -18.999 -33.501s-5.66602 -13.167 -6.99902 -16.5c4 -2 13.667 -4.66699 29 -8
s41.333 -4.66602 78 -3.99902c13.333 0 25.833 0.333008 37.5 1s22.167 1.66699 31.5 3c10.667 1.33301 21 2.33301 31 3c8.66699 1.33301 16.167 -0.5 22.5 -5.5s10.166 -11.833 11.499 -20.5c1.33301 -8 -0.666992 -15.167 -6 -21.5s-12 -10.166 -20 -11.499
c-0.666992 0 -4.33398 -0.333008 -11.001 -1l-26 -2.5c-10.667 -1 -22.834 -2 -36.501 -3s-27.834 -1.5 -42.501 -1.5h-7z" />
    <glyph glyph-name="braceleft" unicode="{" horiz-adv-x="224" 
d="M90 -164c-12 0 -21.6611 2.99414 -28.9941 8.99414c-6.66699 4.66699 -11.834 10.167 -15.501 16.5s-6.33398 12.666 -8.00098 18.999s-2.66699 12.333 -3 18s-0.5 10.167 -0.5 13.5c0 10.667 1 22.5 3 35.5s4.66699 27.833 8 44.5c6.66699 28 14.5 56.5 23.5 85.5
l23.5 74.5c2 4.66699 3.33301 8.66699 4 12c-2 2 -4.5 4 -7.5 6s-5.83301 3.66699 -8.5 5l-17.5 12.5c-6.33301 4.33301 -12.166 9.16602 -17.499 14.499c-16.667 16.667 -24 33.667 -22 51c0.666992 8 3.16699 15.333 7.5 22s9.66602 12.667 15.999 18s13.166 10 20.499 14
s14.666 7.66699 21.999 11c6 6 8 21.333 6 46c-1.33301 16 -4.5 33.5 -9.5 52.5l-15.5 57.5c-5.33301 18.667 -10.333 37.334 -15 56.001s-8 36.334 -10 53.001c-0.666992 6.66699 -1.16699 14.167 -1.5 22.5s0.166992 16.833 1.5 25.5s3.66602 17 6.99902 25
s8.66602 15 15.999 21c12.667 12.667 31 19 55 19c18.667 0 42 -5 70 -15c8 -3.33301 13.833 -8.66602 17.5 -15.999s3.83398 -14.666 0.500977 -21.999c-3.33301 -8 -8.66602 -13.833 -15.999 -17.5s-14.666 -3.83398 -21.999 -0.500977
c-13.333 4.66699 -24.166 7.66699 -32.499 9s-14.833 2 -19.5 2s-8 -0.5 -10 -1.5l-3 -1.5c-0.666992 -0.666992 -2 -3.66699 -4 -9s-1.66699 -16.666 1 -33.999c1.33301 -14.667 4.16602 -30.667 8.49902 -48s9.16602 -34.666 14.499 -51.999l16 -61.5
c5.33301 -20.333 8.66602 -39.833 9.99902 -58.5c2.66699 -20.667 2 -39 -2 -55c-5.33301 -21.333 -15.333 -37.333 -30 -48l-6 -3c-9.33301 -4 -16.333 -7.5 -21 -10.5l-10 -6.5c3.33301 -3.33301 8 -7.16602 14 -11.499l15 -10.5
c11.333 -7.33301 21.5 -15.166 30.5 -23.499s13.833 -18.5 14.5 -30.5c0.666992 -2.66699 0.333984 -6.33398 -0.999023 -11.001c-2 -7.33301 -5 -16.333 -9 -27l-21 -66c-8 -26 -15.333 -51.667 -22 -77c-7.33301 -29.333 -11.333 -50.833 -12 -64.5
s-0.333984 -23.167 0.999023 -28.5c3.33301 1.33301 9 4.5 17 9.5s19 13.167 33 24.5c6 5.33301 13.167 7.83301 21.5 7.5s15.166 -3.83301 20.499 -10.5c5.33301 -6 7.66602 -13.167 6.99902 -21.5s-4 -15.166 -10 -20.499c-25.333 -21.333 -46.333 -35.666 -63 -42.999
c-11.333 -4.66699 -21.666 -7 -30.999 -7z" />
    <glyph glyph-name="bar" unicode="|" horiz-adv-x="120" 
d="M30 545l-0.00292969 18.998c0 1.33301 0.333008 2 1 2s1.16699 1.83301 1.5 5.5l2.5 28.5c1.33301 8 5 14.833 11 20.5s13 8.16699 21 7.5s14.833 -4.16699 20.5 -10.5s8.16699 -13.5 7.5 -21.5c-1.33301 -22 -2.5 -53.333 -3.5 -94s-1.66699 -85.667 -2 -135
s-0.5 -100.166 -0.5 -152.499s0.166992 -101.333 0.5 -147s0.833008 -85.5 1.5 -119.5s1.33398 -56.667 2.00098 -68c0.666992 -8.66699 -1.66602 -16 -6.99902 -22s-12 -9.33301 -20 -10c-8.66699 -0.666992 -16 1.83301 -22 7.5s-9.33301 12.5 -10 20.5
c0 4.66699 -0.166992 17.334 -0.5 38.001s-0.666016 46 -0.999023 76s-0.5 63.667 -0.5 101s-0.166992 75.5 -0.5 114.5s-0.5 77.333 -0.5 115s-0.166992 72 -0.5 103s-0.5 57.333 -0.5 79v42.5z" />
    <glyph glyph-name="braceright" unicode="}" horiz-adv-x="247" 
d="M158 -162c-4 0 -7.99414 0.50293 -11.9941 1.50293l-14 3.5c-18 5.33301 -39.333 16.666 -64 33.999c-6.66699 4.66699 -10.834 11 -12.501 19s0.166016 15.667 5.49902 23c4.66699 6.66699 11 10.834 19 12.501s15.667 -0.166016 23 -5.49902
c15.333 -10.667 27 -17.667 35 -21s13.667 -5.33301 17 -6c0.666992 2.66699 1 7.66699 1 15s-1.33301 18.666 -4 33.999c-3.33301 15.333 -7.16602 31.833 -11.499 49.5l-13.5 52.5c-6.66699 22 -12.334 42.833 -17.001 62.5s-7.66699 36.834 -9 51.501v4
c0.666992 11.333 4.66699 20.666 12 27.999s14.666 13.666 21.999 18.999c3.33301 2 7 4.66699 11 8s6.66699 6 8 8c-0.666992 1.33301 -3.16699 4.66602 -7.5 9.99902s-13.166 12.666 -26.499 21.999c-4 2.66699 -7 5.66699 -9 9c-6.66699 12 -11.334 25.833 -14.001 41.5
s-4.16699 33 -4.5 52s0.5 39 2.5 60l6 64.5c2 19.333 3.66699 37.5 5 54.5s2.33301 32.833 3 47.5c0 15.333 -0.666992 26.333 -2 33s-2.66602 11 -3.99902 13c-2.66699 -0.666992 -7.33398 -2.66699 -14.001 -6s-16.667 -10.333 -30 -21
c-6.66699 -5.33301 -14.167 -7.5 -22.5 -6.5s-15.166 4.83301 -20.499 11.5s-7.5 14 -6.5 22s4.83301 14.667 11.5 20c7.33301 6 15.5 12 24.5 18s18.333 11 28 15s19.5 6.33301 29.5 7s19.667 -1.33301 29 -6c12 -6.66699 20.667 -16.5 26 -29.5
s8.66602 -28.5 9.99902 -46.5s1.16602 -38.167 -0.500977 -60.5s-3.83398 -46.166 -6.50098 -71.499c-2 -19.333 -3.83301 -38.5 -5.5 -57.5s-2.83398 -37.167 -3.50098 -54.5c0 -17.333 0.833008 -31 2.5 -41s3.5 -17.667 5.5 -23c12.667 -9.33301 24.667 -20.333 36 -33
s17.333 -27.334 18 -44.001c0 -16 -5 -29 -15 -39s-19.333 -18.333 -28 -25c-4 -2.66699 -7 -5 -9 -7c1.33301 -12 4.16602 -26.333 8.49902 -43l13.5 -51l19 -72c6 -22.667 9.83301 -43.5 11.5 -62.5s0.833984 -35.667 -2.49902 -50s-10.666 -25.5 -21.999 -33.5
c-8.66699 -6.66699 -19.334 -10 -32.001 -10z" />
    <glyph glyph-name="asciitilde" unicode="~" horiz-adv-x="490" 
d="M309 161l-5 0.000976562c-22.667 1.33301 -42.667 7.33301 -60 18s-32.666 21.667 -45.999 33c-7.33301 6.66699 -15 12.834 -23 18.501s-14.667 8.5 -20 8.5s-11.333 -1.83301 -18 -5.5s-13.834 -8.16699 -21.501 -13.5s-15 -11.166 -22 -17.499
s-13.167 -12.5 -18.5 -18.5s-12 -9.16699 -20 -9.5s-15.333 2.16699 -22 7.5c-6 5.33301 -9.16699 12.166 -9.5 20.499s2.16699 15.5 7.5 21.5l11 11.5c6.66699 7 15.667 15.167 27 24.5c32.667 25.333 61.334 38 86.001 38c15.333 0 29.5 -4.16699 42.5 -12.5
s25.833 -17.166 38.5 -26.499c11.333 -9.33301 22.666 -17.833 33.999 -25.5s23.666 -11.834 36.999 -12.501c10 -0.666992 20.333 1.66602 31 6.99902s20.834 11.833 30.501 19.5s18.167 15.5 25.5 23.5l17 19c5.33301 6.66699 11.833 10.667 19.5 12
s14.834 -0.666992 21.501 -6c7.33301 -5.33301 11.5 -12 12.5 -20s-1.16699 -15.333 -6.5 -22c-0.666992 -0.666992 -5 -5.83398 -13 -15.501s-18.667 -20.167 -32 -31.5c-36.667 -30.667 -71.334 -46 -104.001 -46z" />
    <glyph glyph-name="exclamdown" unicode="&#xa1;" horiz-adv-x="152" 
d="M75 329.01c-12 0 -20.9971 -5.66699 -26.9971 -16.999c-2.66699 -5.33301 -5.33398 -13.166 -8.00098 -23.499s-4.83398 -25.665 -6.50098 -45.9971s-2.66699 -46.9971 -3 -79.9951s0.5 -74.8291 2.5 -125.492c0.666992 -27.332 1.83398 -53.6641 3.50098 -78.9951
c1.66699 -25.332 3 -47.8311 4 -67.4961s2 -35.4971 3 -47.4961l1.5 -17.999c1.33301 -8.66602 5 -15.666 11 -20.999s13.333 -7.66602 22 -6.99902c8 1.33301 14.667 4.99902 20 10.998s7.66602 13.332 6.99902 21.999l-1.5 17.998c-1 11.999 -2 27.665 -3 46.998
c-1 19.332 -2.33301 41.4971 -4 66.4951c-1.66699 24.999 -2.83398 50.8311 -3.50098 77.4961c-2 49.3301 -2.83301 89.4941 -2.5 120.492s1.16602 55.4961 2.49902 73.4951s2.83301 30.832 4.5 38.498s3.16699 12.499 4.5 14.499c3.33301 7.33301 3.83301 14.833 1.5 22.5
c-2.33301 7.66602 -7.16602 13.499 -14.499 17.499c-5.33301 1.99902 -10 2.99902 -14 2.99902zM78.0029 370.007c16 0 29.833 6.16602 41.5 18.499s17.5 27.499 17.5 45.498c0 17.332 -5.83301 32.3311 -17.5 44.9971s-25.5 18.999 -41.5 18.999
s-29.667 -6.33301 -41 -18.999s-17 -27.665 -17 -44.9971c0 -17.999 5.66699 -33.165 17 -45.498s25 -18.499 41 -18.499z" />
    <glyph glyph-name="sterling" unicode="&#xa3;" horiz-adv-x="373" 
d="M364 37c0.666992 -8.66699 -1.83203 -16.002 -7.49902 -22.002s-12.5 -9.33301 -20.5 -10c-23.333 -1.33301 -48.5 -2.66602 -75.5 -3.99902s-54.833 -2 -83.5 -2c-13.333 0 -26.333 0.166992 -39 0.5s-25.667 0.833008 -39 1.5
c-7.33301 0.666992 -13.666 3.66699 -18.999 9s-8.33301 11.666 -9 18.999c-1.33301 10 -2.33301 20.667 -3 32s-1.66699 23 -3 35l-6.5 79c-2.33301 28 -4.5 57 -6.5 87h-1h-2c-8 0 -14.833 2.83301 -20.5 8.5s-8.83398 12.5 -9.50098 20.5c0 8 2.66699 15 8 21
s12.333 9.33301 21 10h1c-0.666992 18 -1.16699 35.833 -1.5 53.5s-0.166016 35.167 0.500977 52.5c2 63.333 8.33301 114.333 19 153c14 50 36 84.667 66 104c41.333 25.333 92 18.333 152 -21c7.33301 -4.66699 11.833 -10.834 13.5 -18.501s0.166992 -15.167 -4.5 -22.5
s-10.834 -11.833 -18.501 -13.5s-15.167 -0.166992 -22.5 4.5c-40 24.667 -69.667 31.334 -89 20.001c-4.66699 -3.33301 -10 -8.66602 -16 -15.999s-11.833 -18.833 -17.5 -34.5s-10.5 -36.167 -14.5 -61.5s-6.66699 -57.333 -8 -96
c-0.666992 -16 -0.833984 -32.5 -0.500977 -49.5s0.833008 -34.167 1.5 -51.5c17.333 1.33301 34.333 2.5 51 3.5s33.334 2.16699 50.001 3.5l53.5 4c17 1.33301 33.167 2.33301 48.5 3c8 0.666992 15 -1.66602 21 -6.99902s9.33301 -12.333 10 -21
c0.666992 -8 -1.66602 -15.167 -6.99902 -21.5s-12.333 -9.5 -21 -9.5c-15.333 -1.33301 -31.333 -2.5 -48 -3.5s-34.334 -2.16699 -53.001 -3.5c-16 -1.33301 -32.667 -2.5 -50 -3.5s-34.666 -2.16699 -51.999 -3.5c1.33301 -30 3.16602 -58.833 5.49902 -86.5
s4.83301 -53.5 7.5 -77.5c0.666992 -15.333 1.66699 -29.333 3 -42c35.333 -1.33301 70.666 -1.33301 105.999 0s68 3 98 5c8.66699 0.666992 16 -1.83301 22 -7.5s9.33301 -12.5 10 -20.5z" />
    <glyph glyph-name="yen" unicode="&#xa5;" horiz-adv-x="438" 
d="M397 698c8 -2.66699 13.835 -7.66699 17.502 -15s4.16699 -15 1.5 -23l-6 -18c-4 -12 -9.5 -27.667 -16.5 -47l-23.5 -65.5c-8.66699 -24.333 -18 -49.166 -28 -74.499l-33 -81c-10 -24 -19.333 -44.667 -28 -62c-10.667 -20 -20.334 -36.667 -29.001 -50
c-4 -6 -9 -12 -15 -18l-7 -216c0 -8 -2.83301 -14.833 -8.5 -20.5s-12.5 -8.5 -20.5 -8.5h-1c-8.66699 0.666992 -15.834 4 -21.501 10s-8.16699 13 -7.5 21l6 214c-7.33301 7.33301 -14.166 16.5 -20.499 27.5s-12.833 24.167 -19.5 39.5
c-7.33301 17.333 -15.333 37.5 -24 60.5s-18 49.5 -28 79.5l-23 73l-19 64.5l-13 46l-5 17.5c-2.66699 7.33301 -1.83398 14.666 2.49902 21.999s10.5 12 18.5 14c8 2.66699 15.5 1.83398 22.5 -2.49902s11.833 -10.5 14.5 -18.5l4 -15.5
c2.66699 -10.333 6.5 -23.833 11.5 -40.5l17.5 -57.5l21 -66.5c8.66699 -28 16.834 -52.333 24.501 -73l20 -53c5.66699 -14.667 10.667 -26.667 15 -36l10.5 -22c3.33301 5.33301 7.33301 12.333 12 21s10.334 20 17.001 34c16 33.333 34.667 78.333 56 135
c9.33301 23.333 18 46.166 26 68.499l21 59.5l14.5 42l5.5 16c3.33301 8 8.66602 13.833 15.999 17.5s14.666 4.16699 21.999 1.5zM184.002 156l-25 -0.00195312c-7.33301 0 -14.5 0.166992 -21.5 0.5l-22 1c-7.66699 0.333008 -16.5 0.833008 -26.5 1.5
c-8 0.666992 -14.833 4 -20.5 10s-8.16699 13.333 -7.5 22c0.666992 8 4 14.833 10 20.5s13 8.16699 21 7.5c26.667 -1.33301 49.834 -2.16602 69.501 -2.49902s38.5 -0.333008 56.5 0s36 1.16602 54 2.49902s38.667 3.33301 62 6c8 0.666992 15.167 -1.66602 21.5 -6.99902
s9.83301 -12 10.5 -20c1.33301 -8.66699 -0.666992 -16 -6 -22s-12 -9.66699 -20 -11c-15.333 -1.33301 -29 -2.66602 -41 -3.99902s-23.833 -2.33301 -35.5 -3s-23.834 -1.16699 -36.501 -1.5s-27 -0.5 -43 -0.5zM244.002 46.998c-13.333 0 -25.833 0.166992 -37.5 0.5
l-35.5 1c-12 0.333008 -24.5 0.833008 -37.5 1.5s-27.833 1.66699 -44.5 3c-8 0 -14.833 3 -20.5 9s-8.16699 13.333 -7.5 22c0.666992 8 4 14.833 10 20.5s13 8.16699 21 7.5l75 -3.5c20.667 -1 39.667 -1.66699 57 -2s34.5 0 51.5 1s36.5 2.5 58.5 4.5
c8 1.33301 15.167 -0.666992 21.5 -6s9.83301 -12.333 10.5 -21c1.33301 -8 -0.666992 -15.167 -6 -21.5s-12 -9.83301 -20 -10.5c-10.667 -1.33301 -19.667 -2.33301 -27 -3s-14.333 -1.16699 -21 -1.5l-21 -1c-7.33301 -0.333008 -16.333 -0.5 -27 -0.5z" />
    <glyph glyph-name="dieresis" unicode="&#xa8;" horiz-adv-x="228" 
d="M41 558c-6 4.66699 -9.99902 12.333 -11.999 23c-0.666992 10 2.16602 18.667 8.49902 26s14.5 11.333 24.5 12h3c10 0 17.667 -3 23 -9c6.66699 -5.33301 10.667 -13 12 -23s-1.16699 -18.667 -7.5 -26s-14.5 -11.333 -24.5 -12h-3c-9.33301 0 -17.333 3 -24 9z
M139.001 556.999c-6 4.66699 -9.99902 12.333 -11.999 23c-0.666992 10 2.16602 18.667 8.49902 26s14.5 11.333 24.5 12h3c10 0 17.667 -3 23 -9c6.66699 -5.33301 10.667 -13 12 -23s-1.16699 -18.667 -7.5 -26s-14.5 -11.333 -24.5 -12h-3c-9.33301 0 -17.333 3 -24 9z
" />
    <glyph glyph-name="copyright" unicode="&#xa9;" horiz-adv-x="703" 
d="M322 -1c-40.667 0 -78.3301 6.83203 -112.997 20.499s-65.334 33.167 -92.001 58.5c-24.667 24.667 -44.334 53 -59.001 85c-14 29.333 -24 62.666 -30 99.999c-6 42.667 -5 85 3 127c8 44 22.667 85.333 44 124c23.333 40.667 52.333 75.334 87 104.001
c38.667 30.667 82 53.334 130 68.001c28.667 8.66699 58 13 88 13c41.333 0 80 -9 116 -27c34 -17.333 64 -41 90 -71c24 -28.667 43.5 -61.5 58.5 -98.5s24.5 -75.833 28.5 -116.5c4 -43.333 1.66699 -85 -7 -125s-23.667 -76.667 -45 -110
c-48.667 -76.667 -122.334 -124.667 -221.001 -144c-28.667 -5.33301 -54.667 -8 -78 -8zM380.004 638.999c-22 0 -45.665 -3.66406 -70.998 -10.9971c-43.333 -12.667 -80 -31.834 -110 -57.501s-54.167 -55 -72.5 -88s-30.666 -67.833 -36.999 -104.5
s-6.83301 -72.334 -1.5 -107.001c4 -25.333 11.333 -50.666 22 -75.999s25.5 -48 44.5 -68s42.333 -36.333 70 -49s60.167 -19 97.5 -19c10.667 0 21.667 0.5 33 1.5s22.666 2.83301 33.999 5.5c46 8.66699 84.167 24.167 114.5 46.5s54 48.166 71 77.499
s28.333 60.666 34 93.999s7.16699 65.333 4.5 96c-3.33301 32 -10.833 63.5 -22.5 94.5s-27.334 58.667 -47.001 83s-43.334 44 -71.001 59s-58.5 22.5 -92.5 22.5zM341.006 110.002l-0.995117 0.000976562c-38.667 1.33301 -69.667 18.666 -93 51.999
c-24 34 -37 83.667 -39 149c-2 80.667 12 146 42 196c14 23.333 30.5 41.833 49.5 55.5s39.167 21.167 60.5 22.5c13.333 0.666992 26.666 -1 39.999 -5s25.5 -11.167 36.5 -21.5s20.5 -23.666 28.5 -39.999s13.333 -35.833 16 -58.5c0.666992 -8 -1.5 -15.167 -6.5 -21.5
s-11.833 -10.166 -20.5 -11.499c-8 -1.33301 -15.167 0.666992 -21.5 6s-10.166 12 -11.499 20c-2.66699 26 -10.334 45.667 -23.001 59c-10 10 -21 14.333 -33 13c-11.333 -0.666992 -22.5 -5.33398 -33.5 -14.001s-20.833 -20.334 -29.5 -35.001
c-8.66699 -14 -16.834 -34.167 -24.501 -60.5s-10.834 -60.5 -9.50098 -102.5c1.33301 -33.333 5 -59 11 -77s11.667 -31.333 17 -40c12 -17.333 27 -26 45 -26c10 0 20.167 2.33301 30.5 7s19.666 11 27.999 19s15.166 17 20.499 27s8.33301 20 9 30
c0.666992 8 4 14.833 10 20.5s13 8.16699 21 7.5c8.66699 -0.666992 15.834 -4 21.501 -10s8.16699 -13.333 7.5 -22c-1.33301 -18 -6.33301 -35.333 -15 -52s-19.834 -31.5 -33.501 -44.5s-29.167 -23.333 -46.5 -31s-35 -11.5 -53 -11.5z" />
    <glyph glyph-name="registered" unicode="&#xae;" horiz-adv-x="702" 
d="M480 403c-13.333 -29.333 -37 -52.6689 -71 -70.002c-20 -9.33301 -41 -16 -63 -20l16.5 -18l16.5 -17l45 -47.5c15.333 -15.667 33.666 -32.834 54.999 -51.501c6.66699 -5.33301 10.167 -12 10.5 -20s-2.16699 -15.333 -7.5 -22c-6 -6.66699 -13.667 -10 -23 -10
c-7.33301 0 -13.666 2.33301 -18.999 7c-23.333 19.333 -42.833 37.166 -58.5 53.499l-46.5 49.5l-16.5 17l-16.5 18l-2 -120c0 -8 -2.83301 -15 -8.5 -21s-12.834 -9 -21.501 -9c-8 0.666992 -15 3.83398 -21 9.50098s-9 12.834 -9 21.501l4 342
c-6 0.666992 -11.5 2.83398 -16.5 6.50098s-8.16699 8.5 -9.5 14.5c-2.66699 8 -2 15.667 2 23s10 12 18 14c48.667 16 93.334 20.333 134.001 13c38.667 -6 68.667 -21.333 90 -46c14.667 -16 23.667 -34.667 27 -56s0.333008 -41.666 -9 -60.999zM303 367.997
c32.667 2 59.001 8.33398 79.001 19.001c21.333 11.333 36 25 44 41c8.66699 19.333 5.66699 36.666 -9 51.999c-8.66699 10 -22.334 18 -41.001 24s-42.667 7 -72 3zM672.001 386.998c4 -43.333 1.66992 -84.998 -6.99707 -124.998s-23.667 -76.667 -45 -110
c-24 -38 -54.667 -69.167 -92 -93.5s-80.333 -41.166 -129 -50.499c-28.667 -5.33301 -54.667 -8 -78 -8c-40.667 0 -78.334 6.66699 -113.001 20s-65 33 -91 59c-24 24 -44 52 -60 84c-14.667 32 -24.334 65.333 -29.001 100c-3.33301 21.333 -4.83301 42.666 -4.5 63.999
s2.5 42.666 6.5 63.999c8 43.333 22.667 84.333 44 123c23.333 41.333 52.333 76 87 104c37.333 30.667 80.666 53.667 129.999 69c15.333 4 30.333 7.16699 45 9.5s29 3.5 43 3.5c41.333 0 80 -9 116 -27c33.333 -16.667 63.333 -40.334 90 -71.001
c24 -28.667 43.5 -61.5 58.5 -98.5s24.5 -75.833 28.5 -116.5zM388.004 67c46 8.66699 84.1689 24.1709 114.502 46.5039s54 48.166 71 77.499s28.333 60.666 34 93.999s7.16699 65.333 4.5 96c-3.33301 32 -10.833 63.5 -22.5 94.5s-27.334 58.667 -47.001 83
s-43.334 44 -71.001 59s-58.5 22.5 -92.5 22.5c-22 0 -45.667 -3.66699 -71 -11c-43.333 -12.667 -80 -31.834 -110 -57.501s-54.167 -55 -72.5 -88s-30.666 -67.833 -36.999 -104.5s-6.83301 -72.334 -1.5 -107.001c4 -26 11.333 -51.667 22 -77s25.5 -48 44.5 -68
s42.333 -36.167 70 -48.5s60.167 -18.5 97.5 -18.5c10.667 0 21.667 0.5 33 1.5s22.666 2.83301 33.999 5.5z" />
    <glyph glyph-name="macron" unicode="&#xaf;" horiz-adv-x="353" 
d="M213 573c-22.667 0 -46.5 0.332031 -71.5 0.999023s-53.167 2 -84.5 4c-8 1.33301 -14.833 5 -20.5 11s-8.16699 13 -7.5 21s4.16699 14.833 10.5 20.5s13.5 8.16699 21.5 7.5c33.333 -2 60.833 -3.5 82.5 -4.5s40.5 -1.5 56.5 -1.5s31 0.166992 45 0.5
s29.667 1.16602 47 2.49902c8.66699 0.666992 16 -1.66602 22 -6.99902s9.33301 -12 10 -20c0.666992 -8.66699 -1.83301 -16 -7.5 -22s-12.5 -9.33301 -20.5 -10l-22.5 -1.5c-5 -0.333008 -9.66699 -0.666016 -14 -0.999023s-9.83301 -0.5 -16.5 -0.5h-30z" />
    <glyph glyph-name="acute" unicode="&#xb4;" horiz-adv-x="174" 
d="M41 534c-9.33301 0 -16.999 3.66602 -22.999 10.999c-5.33301 6.66699 -7.5 14 -6.5 22s4.5 14.667 10.5 20l25.5 21c7 6 13.667 12.167 20 18.5s12.5 13.166 18.5 20.499l21 27c4.66699 6.66699 11 10.667 19 12s15.333 -0.666992 22 -6
c7.33301 -4.66699 11.666 -11 12.999 -19s-0.666992 -15.333 -6 -22c-8 -11.333 -15.5 -21.166 -22.5 -29.499s-14 -16.166 -21 -23.499s-14.667 -14.5 -23 -21.5l-28.5 -23.5c-4.66699 -4.66699 -11 -7 -19 -7z" />
    <glyph glyph-name="periodcentered" unicode="&#xb7;" horiz-adv-x="148" 
d="M40 266c-5.33301 4 -9.16602 8.66699 -11.499 14s-4.16602 11.333 -5.49902 18c-0.666992 14 3.5 26.167 12.5 36.5s20.5 15.833 34.5 16.5h4c6 0 11.833 -0.833008 17.5 -2.5s10.5 -5.16699 14.5 -10.5c5.33301 -4 9.16602 -8.66699 11.499 -14
s4.16602 -11.333 5.49902 -18c1.33301 -14 -2.33398 -26.167 -11.001 -36.5s-20 -15.833 -34 -16.5h-4c-13.333 0 -24.666 4.33301 -33.999 13z" />
    <glyph glyph-name="cedilla" unicode="&#xb8;" horiz-adv-x="192" 
d="M78 -203c-3.33301 0 -6.83496 0.167969 -10.502 0.500977s-7.5 0.833008 -11.5 1.5c-8.66699 1.33301 -15.5 5 -20.5 11s-7.16699 13.333 -6.5 22c1.33301 8 5.16602 14.667 11.499 20s13.833 7.33301 22.5 6c16 -2 28.333 -1.5 37 1.5s14.334 6.83301 17.001 11.5
s2.33398 10.334 -0.999023 17.001c-3.33301 4.66699 -9.33301 8.5 -18 11.5s-19.667 3.16699 -33 0.5c-9.33301 -2 -18 0.333008 -26 7c-6.66699 6 -10 14 -10 24l5 66c0.666992 8 4 14.833 10 20.5s13.333 8.16699 22 7.5c8 -0.666992 14.833 -4.16699 20.5 -10.5
s7.83398 -13.5 6.50098 -21.5l-2 -32c15.333 -1.33301 29.5 -5.33301 42.5 -12s23.5 -15.667 31.5 -27c8.66699 -12.667 13.167 -26.334 13.5 -41.001s-3.16699 -28.334 -10.5 -41.001c-2 -3.33301 -5.16699 -7.5 -9.5 -12.5s-10 -9.83301 -17 -14.5s-15.667 -8.5 -26 -11.5
s-22.833 -4.5 -37.5 -4.5z" />
    <glyph glyph-name="questiondown" unicode="&#xbf;" horiz-adv-x="356" 
d="M8.02051 -83.9648c-1.33301 35.998 4.99805 76.6602 18.9971 121.991c14.666 48.6631 35.8311 97.6602 63.4961 146.991c27.665 49.3301 60.4961 96.6602 98.4932 141.991c6 7.33301 13.666 10.999 22.999 10.999c7.33301 0 13.666 -2.33301 18.999 -7
c6.66602 -5.33301 10.332 -12.166 10.999 -20.499s-1.66602 -15.499 -6.99902 -21.498c-34.665 -41.9971 -64.9961 -86.1611 -90.9941 -132.492c-25.999 -46.3301 -45.6641 -91.4941 -58.9961 -135.491c-12.666 -39.9971 -18.332 -74.3281 -16.999 -102.993
c1.33301 -24.665 6.66602 -41.6641 15.999 -50.9971c6.66602 -6.66602 15.665 -8.99902 26.998 -6.99902s21.666 4.66602 30.999 7.99902c19.332 7.33301 41.6641 19.999 66.9961 37.998c25.3311 17.999 52.3291 40.3311 80.9941 66.9961
c5.99902 5.99902 13.165 8.83203 21.498 8.49902s15.166 -3.49902 20.499 -9.49805c6 -6 8.83301 -13.166 8.5 -21.499s-3.5 -15.166 -9.5 -20.499c-64.6631 -60.6631 -120.326 -99.9941 -166.989 -117.993c-15.999 -6 -30.332 -9.66602 -42.998 -10.999
c-12.665 -1.33301 -23.998 -1.16602 -33.998 0.500977c-9.99902 1.66602 -18.498 4.66602 -25.4971 8.99902s-13.165 8.83301 -18.498 13.499c-21.332 19.332 -32.998 49.9971 -34.998 91.9941zM205.007 375.006c-17.332 0 -30.665 7.99902 -39.998 23.998
c-6.66699 11.999 -10 24.665 -10 37.998c0 13.999 3.33301 26.998 10 38.9971c9.33301 15.999 22.665 23.999 39.9971 23.999c17.333 0 30.666 -8 39.999 -23.999c6.66602 -11.999 9.99902 -24.998 9.99902 -38.9971c0 -13.333 -3.33301 -25.999 -9.99902 -37.998
c-4.66699 -7.99902 -10.5 -13.999 -17.499 -17.999c-7 -3.99902 -14.5 -5.99902 -22.499 -5.99902z" />
    <glyph glyph-name="Agrave" unicode="&#xc0;" 
d="M393 323c-1.33301 8.66699 -5.49805 15.1719 -12.498 19.5049s-14.5 5.83301 -22.5 4.5c-4 -1.33301 -8 -2.16602 -12 -2.49902s-8.33301 -1.16602 -13 -2.49902c-2 -0.666992 -4.16699 -1.16699 -6.5 -1.5s-4.5 -0.833008 -6.5 -1.5
c-5.33301 42.667 -10.5 81.5 -15.5 116.5s-10.167 66.167 -15.5 93.5c-5.33301 25.333 -10.5 46.166 -15.5 62.499s-10 29.666 -15 39.999s-9.83301 18.166 -14.5 23.499s-9 9.66602 -13 12.999c-12.667 8.66699 -25.667 11.334 -39 8.00098c-16 -4 -30 -16 -42 -36
s-23 -50.667 -33 -92c-7.33301 -28 -14 -60 -20 -96s-11.667 -77 -17 -123c-1.33301 -8 -2.33301 -15.833 -3 -23.5l-2 -22.5h-17c-8 -0.666992 -14.833 -4 -20.5 -10s-8.16699 -13.333 -7.5 -22c0 -8 3 -14.667 9 -20s13 -8 21 -8h8c-2 -23.333 -3.66699 -44.333 -5 -63
s-2.66602 -34.334 -3.99902 -47.001c-1.33301 -13.333 -2.33301 -26.333 -3 -39s-1.33398 -24 -2.00098 -34c-0.666992 -16 -1 -26 -1 -30s0.333008 -6.66699 1 -8c1.33301 -7.33301 4.66602 -13.333 9.99902 -18s11.666 -7 18.999 -7c1.33301 0 2.33301 0.166992 3 0.5
s1.66699 0.5 3 0.5c8 1.33301 14.333 5.16602 19 11.499s6.33398 13.5 5.00098 21.5c0 3.33301 0.333008 11.333 1 24s1.66699 28.667 3 48s3 41.5 5 66.5s4.33301 51.167 7 78.5c24 2 47.5 4.83301 70.5 8.5s45.5 7.5 67.5 11.5l7.5 -90l6 -75
c1.66699 -21.333 2.83398 -38.5 3.50098 -51.5l1 -19.5c0 -8.66699 3.16699 -15.834 9.5 -21.501s13.5 -8.16699 21.5 -7.5c8.66699 0.666992 15.667 4 21 10s7.66602 13.333 6.99902 22l-1 20c-0.666992 13.333 -1.83398 31.333 -3.50098 54l-6 78l-7.5 92
c3.33301 1.33301 6.5 2.16602 9.5 2.49902s6.16699 0.833008 9.5 1.5c4 1.33301 8.16699 2.33301 12.5 3l12.5 2c8 1.33301 14.167 5.5 18.5 12.5s5.83301 14.5 4.5 22.5zM138.002 335.005c5.33301 42 10.835 80 16.502 114s11.5 64 17.5 90c6 27.333 11.667 47.833 17 61.5
s9.66602 23.5 12.999 29.5c2 -5.33301 5 -12.333 9 -21c3.33301 -9.33301 6.5 -20.333 9.5 -33l9.5 -42c5.33301 -26.667 10.5 -57.167 15.5 -91.5s10.167 -72.5 15.5 -114.5c-20.667 -4 -41.334 -7.66699 -62.001 -11s-42 -6 -64 -8c0.666992 4 1.16699 8.16699 1.5 12.5
s0.833008 8.83301 1.5 13.5zM254.004 734.005c-8 0 -14.332 2.33398 -18.999 7.00098l-28.5 23.5c-8.33301 7 -16 14.167 -23 21.5s-14 15.166 -21 23.499s-14.5 18.166 -22.5 29.499c-5.33301 6.66699 -7.33301 14 -6 22s5.66602 14.333 12.999 19
c6.66699 5.33301 14 7.33301 22 6s14.333 -5.33301 19 -12l21 -27c6 -7.33301 12.167 -14.166 18.5 -20.499s13 -12.5 20 -18.5l25.5 -21c6 -5.33301 9.5 -12 10.5 -20s-1.16699 -15.333 -6.5 -22c-6 -7.33301 -13.667 -11 -23 -11z" />
    <glyph glyph-name="Aacute" unicode="&#xc1;" 
d="M393 323c1.33301 -8 -0.168945 -15.5049 -4.50195 -22.5049s-10.5 -11.167 -18.5 -12.5l-12.5 -2c-4.33301 -0.666992 -8.5 -1.66699 -12.5 -3c-3.33301 -0.666992 -6.5 -1.16699 -9.5 -1.5s-6.16699 -1.16602 -9.5 -2.49902l7.5 -92l6 -78
c1.66699 -22.667 2.83398 -40.667 3.50098 -54l1 -20c0.666992 -8.66699 -1.66602 -16 -6.99902 -22s-12.333 -9.33301 -21 -10c-8 -0.666992 -15.167 1.83301 -21.5 7.5s-9.5 12.834 -9.5 21.501l-1 19.5c-0.666992 13 -1.83398 30.167 -3.50098 51.5l-6 75l-7.5 90
c-22 -4 -44.5 -7.83301 -67.5 -11.5s-46.5 -6.5 -70.5 -8.5c-2.66699 -27.333 -5 -53.5 -7 -78.5s-3.66699 -47.167 -5 -66.5s-2.33301 -35.333 -3 -48s-1 -20.667 -1 -24c1.33301 -8 -0.333984 -15.167 -5.00098 -21.5s-11 -10.166 -19 -11.499
c-1.33301 0 -2.33301 -0.166992 -3 -0.5s-1.66699 -0.5 -3 -0.5c-7.33301 0 -13.666 2.33301 -18.999 7s-8.66602 10.667 -9.99902 18c-0.666992 1.33301 -1 4 -1 8s0.333008 14 1 30c0.666992 10 1.33398 21.333 2.00098 34s1.66699 25.667 3 39
c1.33301 12.667 2.66602 28.334 3.99902 47.001s3 39.667 5 63h-8c-8 0 -15 2.66699 -21 8s-9 12 -9 20c-0.666992 8.66699 1.83301 16 7.5 22s12.5 9.33301 20.5 10h17l2 22.5c0.666992 7.66699 1.66699 15.5 3 23.5c5.33301 46 11 87 17 123s12.667 68 20 96
c10 41.333 21 72 33 92s26 32 42 36c13.333 3.33301 26.333 0.666016 39 -8.00098c4 -3.33301 8.33301 -7.66602 13 -12.999s9.5 -13.166 14.5 -23.499s10 -23.666 15 -39.999s10.167 -37.166 15.5 -62.499c5.33301 -27.333 10.5 -58.5 15.5 -93.5
s10.167 -73.833 15.5 -116.5c2 0.666992 4.16699 1.16699 6.5 1.5s4.5 0.833008 6.5 1.5c4.66699 1.33301 9 2.16602 13 2.49902s8 1.16602 12 2.49902c8 1.33301 15.5 -0.166992 22.5 -4.5s11.167 -10.833 12.5 -19.5zM137.998 334.995
c-0.666992 -4.66699 -1.16895 -9.16699 -1.50195 -13.5s-0.833008 -8.5 -1.5 -12.5c22 2 43.333 4.66699 64 8s41.334 7 62.001 11c-5.33301 42 -10.5 80.167 -15.5 114.5s-10.167 64.833 -15.5 91.5l-9.5 42c-3 12.667 -6.16699 23.667 -9.5 33c-4 8.66699 -7 15.667 -9 21
c-3.33301 -6 -7.66602 -15.833 -12.999 -29.5s-11 -34.167 -17 -61.5c-6 -26 -11.833 -56 -17.5 -90s-11.167 -72 -16.5 -114zM162.996 733.995c-9.33301 0 -16.999 3.66602 -22.999 10.999c-5.33301 6.66699 -7.5 14 -6.5 22s4.5 14.667 10.5 20l25.5 21
c7 6 13.667 12.167 20 18.5s12.5 13.166 18.5 20.499l21 27c4.66699 6.66699 11 10.667 19 12s15.333 -0.666992 22 -6c7.33301 -4.66699 11.666 -11 12.999 -19s-0.666992 -15.333 -6 -22c-8 -11.333 -15.5 -21.166 -22.5 -29.499s-14 -16.166 -21 -23.499
s-14.667 -14.5 -23 -21.5l-28.5 -23.5c-4.66699 -4.66699 -11 -7 -19 -7z" />
    <glyph glyph-name="Acircumflex" unicode="&#xc2;" 
d="M393 323c-1.33301 8.66699 -5.49805 15.1719 -12.498 19.5049s-14.5 5.83301 -22.5 4.5c-4 -1.33301 -8 -2.16602 -12 -2.49902s-8.33301 -1.16602 -13 -2.49902c-2 -0.666992 -4.16699 -1.16699 -6.5 -1.5s-4.5 -0.833008 -6.5 -1.5
c-5.33301 42.667 -10.5 81.5 -15.5 116.5s-10.167 66.167 -15.5 93.5c-5.33301 25.333 -10.5 46.166 -15.5 62.499s-10 29.666 -15 39.999s-9.83301 18.166 -14.5 23.499s-9 9.66602 -13 12.999c-12.667 8.66699 -25.667 11.334 -39 8.00098c-16 -4 -30 -16 -42 -36
s-23 -50.667 -33 -92c-7.33301 -28 -14 -60 -20 -96s-11.667 -77 -17 -123c-1.33301 -8 -2.33301 -15.833 -3 -23.5l-2 -22.5h-17c-8 -0.666992 -14.833 -4 -20.5 -10s-8.16699 -13.333 -7.5 -22c0 -8 3 -14.667 9 -20s13 -8 21 -8h8c-2 -23.333 -3.66699 -44.333 -5 -63
s-2.66602 -34.334 -3.99902 -47.001c-1.33301 -13.333 -2.33301 -26.333 -3 -39s-1.33398 -24 -2.00098 -34c-0.666992 -16 -1 -26 -1 -30s0.333008 -6.66699 1 -8c1.33301 -7.33301 4.66602 -13.333 9.99902 -18s11.666 -7 18.999 -7c1.33301 0 2.33301 0.166992 3 0.5
s1.66699 0.5 3 0.5c8 1.33301 14.333 5.16602 19 11.499s6.33398 13.5 5.00098 21.5c0 3.33301 0.333008 11.333 1 24s1.66699 28.667 3 48s3 41.5 5 66.5s4.33301 51.167 7 78.5c24 2 47.5 4.83301 70.5 8.5s45.5 7.5 67.5 11.5l7.5 -90l6 -75
c1.66699 -21.333 2.83398 -38.5 3.50098 -51.5l1 -19.5c0 -8.66699 3.16699 -15.834 9.5 -21.501s13.5 -8.16699 21.5 -7.5c8.66699 0.666992 15.667 4 21 10s7.66602 13.333 6.99902 22l-1 20c-0.666992 13.333 -1.83398 31.333 -3.50098 54l-6 78l-7.5 92
c3.33301 1.33301 6.5 2.16602 9.5 2.49902s6.16699 0.833008 9.5 1.5c4 1.33301 8.16699 2.33301 12.5 3l12.5 2c8 1.33301 14.167 5.5 18.5 12.5s5.83301 14.5 4.5 22.5zM138.002 335.005c5.33301 42 10.835 80 16.502 114s11.5 64 17.5 90c6 27.333 11.667 47.833 17 61.5
s9.66602 23.5 12.999 29.5c2 -5.33301 5 -12.333 9 -21c3.33301 -9.33301 6.5 -20.333 9.5 -33l9.5 -42c5.33301 -26.667 10.5 -57.167 15.5 -91.5s10.167 -72.5 15.5 -114.5c-20.667 -4 -41.334 -7.66699 -62.001 -11s-42 -6 -64 -8c0.666992 4 1.16699 8.16699 1.5 12.5
s0.833008 8.83301 1.5 13.5zM141.004 736.005c-4.66699 0 -8.99902 1.00098 -12.999 3.00098c-7.33301 3.33301 -12.333 9 -15 17s-2.33398 15.667 0.999023 23c0.666992 0.666992 3.5 5.66699 8.5 15s11.167 19.666 18.5 30.999c13.333 20.667 25.166 35.5 35.499 44.5
s21.166 13.5 32.499 13.5c19.333 0 41.666 -18.333 66.999 -55c7.33301 -11.333 13.5 -21.5 18.5 -30.5s7.83301 -13.833 8.5 -14.5c3.33301 -7.33301 3.83301 -14.833 1.5 -22.5s-7.16602 -13.5 -14.499 -17.5s-14.833 -4.66699 -22.5 -2s-13.5 7.66699 -17.5 15
c-1.33301 3.33301 -3.33301 6.66602 -6 9.99902l-14 23c-4.66699 7.33301 -8.66699 13.333 -12 18s-6.33301 8.33398 -9 11.001c-4.66699 -4.66699 -12 -15 -22 -31c-3.33301 -4.66699 -6.16602 -9 -8.49902 -13s-4.16602 -7.66699 -5.49902 -11
c-2 -4 -3.66699 -7.66699 -5 -11c-6.66699 -10.667 -15.667 -16 -27 -16z" />
    <glyph glyph-name="Atilde" unicode="&#xc3;" 
d="M393 323c-1.33301 8.66699 -5.49805 15.1719 -12.498 19.5049s-14.5 5.83301 -22.5 4.5c-4 -1.33301 -8 -2.16602 -12 -2.49902s-8.33301 -1.16602 -13 -2.49902c-2 -0.666992 -4.16699 -1.16699 -6.5 -1.5s-4.5 -0.833008 -6.5 -1.5
c-5.33301 42.667 -10.5 81.5 -15.5 116.5s-10.167 66.167 -15.5 93.5c-5.33301 25.333 -10.5 46.166 -15.5 62.499s-10 29.666 -15 39.999s-9.83301 18.166 -14.5 23.499s-9 9.66602 -13 12.999c-12.667 8.66699 -25.667 11.334 -39 8.00098c-16 -4 -30 -16 -42 -36
s-23 -50.667 -33 -92c-7.33301 -28 -14 -60 -20 -96s-11.667 -77 -17 -123c-1.33301 -8 -2.33301 -15.833 -3 -23.5l-2 -22.5h-17c-8 -0.666992 -14.833 -4 -20.5 -10s-8.16699 -13.333 -7.5 -22c0 -8 3 -14.667 9 -20s13 -8 21 -8h8c-2 -23.333 -3.66699 -44.333 -5 -63
s-2.66602 -34.334 -3.99902 -47.001c-1.33301 -13.333 -2.33301 -26.333 -3 -39s-1.33398 -24 -2.00098 -34c-0.666992 -16 -1 -26 -1 -30s0.333008 -6.66699 1 -8c1.33301 -7.33301 4.66602 -13.333 9.99902 -18s11.666 -7 18.999 -7c1.33301 0 2.33301 0.166992 3 0.5
s1.66699 0.5 3 0.5c8 1.33301 14.333 5.16602 19 11.499s6.33398 13.5 5.00098 21.5c0 3.33301 0.333008 11.333 1 24s1.66699 28.667 3 48s3 41.5 5 66.5s4.33301 51.167 7 78.5c24 2 47.5 4.83301 70.5 8.5s45.5 7.5 67.5 11.5l7.5 -90l6 -75
c1.66699 -21.333 2.83398 -38.5 3.50098 -51.5l1 -19.5c0 -8.66699 3.16699 -15.834 9.5 -21.501s13.5 -8.16699 21.5 -7.5c8.66699 0.666992 15.667 4 21 10s7.66602 13.333 6.99902 22l-1 20c-0.666992 13.333 -1.83398 31.333 -3.50098 54l-6 78l-7.5 92
c3.33301 1.33301 6.5 2.16602 9.5 2.49902s6.16699 0.833008 9.5 1.5c4 1.33301 8.16699 2.33301 12.5 3l12.5 2c8 1.33301 14.167 5.5 18.5 12.5s5.83301 14.5 4.5 22.5zM138.002 335.005c5.33301 42 10.835 80 16.502 114s11.5 64 17.5 90c6 27.333 11.667 47.833 17 61.5
s9.66602 23.5 12.999 29.5c2 -5.33301 5 -12.333 9 -21c3.33301 -9.33301 6.5 -20.333 9.5 -33l9.5 -42c5.33301 -26.667 10.5 -57.167 15.5 -91.5s10.167 -72.5 15.5 -114.5c-20.667 -4 -41.334 -7.66699 -62.001 -11s-42 -6 -64 -8c0.666992 4 1.16699 8.16699 1.5 12.5
s0.833008 8.83301 1.5 13.5zM110.004 724.005c-7.33301 0 -14.002 2.67188 -20.002 8.00488s-9.33301 11.666 -10 18.999s-0.833984 15.333 -0.500977 24s1.33301 17.167 3 25.5s4.66699 16 9 23s10.166 12.833 17.499 17.5c8.66699 5.33301 17.834 8 27.501 8
s19.5 -1.66699 29.5 -5s20.167 -8 30.5 -14l30.5 -18l19 -11.5c6 -3.66699 12 -6.83398 18 -9.50098c3.33301 -2 6 -3.33301 8 -4s3.66699 -1.33398 5 -2.00098c0.666992 2.66699 1 10.667 1 24c-1.33301 8 0.833984 15.167 6.50098 21.5s12.5 9.83301 20.5 10.5
c8.66699 0.666992 16 -1.83301 22 -7.5s9.33301 -12.5 10 -20.5c1.33301 -13.333 0.666016 -28 -2.00098 -44s-11 -28.667 -25 -38c-12.667 -7.33301 -25.167 -9.5 -37.5 -6.5s-20.833 5.5 -25.5 7.5c-8.66699 3.33301 -17.167 7.66602 -25.5 12.999
s-17.166 10.666 -26.499 15.999l-19.5 11.5l-18.5 10.5c-4 1.33301 -7.33301 2.5 -10 3.5s-4.66699 1.83301 -6 2.5c-0.666992 -2.66699 -1.16699 -6.5 -1.5 -11.5s-0.166016 -12.167 0.500977 -21.5c0.666992 -8.66699 -1.66602 -16 -6.99902 -22s-12.333 -9.33301 -21 -10
h-2z" />
    <glyph glyph-name="Adieresis" unicode="&#xc4;" 
d="M393 323c1.33301 -8 -0.168945 -15.5049 -4.50195 -22.5049s-10.5 -11.167 -18.5 -12.5l-12.5 -2c-4.33301 -0.666992 -8.5 -1.66699 -12.5 -3c-3.33301 -0.666992 -6.5 -1.16699 -9.5 -1.5s-6.16699 -1.16602 -9.5 -2.49902l7.5 -92l6 -78
c1.66699 -22.667 2.83398 -40.667 3.50098 -54l1 -20c0.666992 -8.66699 -1.66602 -16 -6.99902 -22s-12.333 -9.33301 -21 -10c-8 -0.666992 -15.167 1.83301 -21.5 7.5s-9.5 12.834 -9.5 21.501l-1 19.5c-0.666992 13 -1.83398 30.167 -3.50098 51.5l-6 75l-7.5 90
c-22 -4 -44.5 -7.83301 -67.5 -11.5s-46.5 -6.5 -70.5 -8.5c-2.66699 -27.333 -5 -53.5 -7 -78.5s-3.66699 -47.167 -5 -66.5s-2.33301 -35.333 -3 -48s-1 -20.667 -1 -24c1.33301 -8 -0.333984 -15.167 -5.00098 -21.5s-11 -10.166 -19 -11.499
c-1.33301 0 -2.33301 -0.166992 -3 -0.5s-1.66699 -0.5 -3 -0.5c-7.33301 0 -13.666 2.33301 -18.999 7s-8.66602 10.667 -9.99902 18c-0.666992 1.33301 -1 4 -1 8s0.333008 14 1 30c0.666992 10 1.33398 21.333 2.00098 34s1.66699 25.667 3 39
c1.33301 12.667 2.66602 28.334 3.99902 47.001s3 39.667 5 63h-8c-8 0 -15 2.66699 -21 8s-9 12 -9 20c-0.666992 8.66699 1.83301 16 7.5 22s12.5 9.33301 20.5 10h17l2 22.5c0.666992 7.66699 1.66699 15.5 3 23.5c5.33301 46 11 87 17 123s12.667 68 20 96
c10 41.333 21 72 33 92s26 32 42 36c13.333 3.33301 26.333 0.666016 39 -8.00098c4 -3.33301 8.33301 -7.66602 13 -12.999s9.5 -13.166 14.5 -23.499s10 -23.666 15 -39.999s10.167 -37.166 15.5 -62.499c5.33301 -27.333 10.5 -58.5 15.5 -93.5
s10.167 -73.833 15.5 -116.5c2 0.666992 4.16699 1.16699 6.5 1.5s4.5 0.833008 6.5 1.5c4.66699 1.33301 9 2.16602 13 2.49902s8 1.16602 12 2.49902c8 1.33301 15.5 -0.166992 22.5 -4.5s11.167 -10.833 12.5 -19.5zM137.998 334.995
c-0.666992 -4.66699 -1.16895 -9.16699 -1.50195 -13.5s-0.833008 -8.5 -1.5 -12.5c22 2 43.333 4.66699 64 8s41.334 7 62.001 11c-5.33301 42 -10.5 80.167 -15.5 114.5s-10.167 64.833 -15.5 91.5l-9.5 42c-3 12.667 -6.16699 23.667 -9.5 33c-4 8.66699 -7 15.667 -9 21
c-3.33301 -6 -7.66602 -15.833 -12.999 -29.5s-11 -34.167 -17 -61.5c-6 -26 -11.833 -56 -17.5 -90s-11.167 -72 -16.5 -114zM134.996 757.995c-6 4.66699 -9.99902 12.333 -11.999 23c-0.666992 10 2.16602 18.667 8.49902 26s14.5 11.333 24.5 12h3c10 0 17.667 -3 23 -9
c6.66699 -5.33301 10.667 -13 12 -23s-1.16699 -18.667 -7.5 -26s-14.5 -11.333 -24.5 -12h-3c-9.33301 0 -17.333 3 -24 9zM232.997 756.994c-6 4.66699 -9.99902 12.333 -11.999 23c-0.666992 10 2.16602 18.667 8.49902 26s14.5 11.333 24.5 12h3c10 0 17.667 -3 23 -9
c6.66699 -5.33301 10.667 -13 12 -23s-1.16699 -18.667 -7.5 -26s-14.5 -11.333 -24.5 -12h-3c-9.33301 0 -17.333 3 -24 9z" />
    <glyph glyph-name="Aring" unicode="&#xc5;" 
d="M393 323c-1.33301 8.66699 -5.49805 15.1719 -12.498 19.5049s-14.5 5.83301 -22.5 4.5c-4 -1.33301 -8 -2.16602 -12 -2.49902s-8.33301 -1.16602 -13 -2.49902c-2 -0.666992 -4.16699 -1.16699 -6.5 -1.5s-4.5 -0.833008 -6.5 -1.5
c-5.33301 42.667 -10.5 81.5 -15.5 116.5s-10.167 66.167 -15.5 93.5c-5.33301 25.333 -10.5 46.166 -15.5 62.499s-10 29.666 -15 39.999s-9.83301 18.166 -14.5 23.499s-9 9.66602 -13 12.999c-12.667 8.66699 -25.667 11.334 -39 8.00098c-16 -4 -30 -16 -42 -36
s-23 -50.667 -33 -92c-7.33301 -28 -14 -60 -20 -96s-11.667 -77 -17 -123c-1.33301 -8 -2.33301 -15.833 -3 -23.5l-2 -22.5h-17c-8 -0.666992 -14.833 -4 -20.5 -10s-8.16699 -13.333 -7.5 -22c0 -8 3 -14.667 9 -20s13 -8 21 -8h8c-2 -23.333 -3.66699 -44.333 -5 -63
s-2.66602 -34.334 -3.99902 -47.001c-1.33301 -13.333 -2.33301 -26.333 -3 -39s-1.33398 -24 -2.00098 -34c-0.666992 -16 -1 -26 -1 -30s0.333008 -6.66699 1 -8c1.33301 -7.33301 4.66602 -13.333 9.99902 -18s11.666 -7 18.999 -7c1.33301 0 2.33301 0.166992 3 0.5
s1.66699 0.5 3 0.5c8 1.33301 14.333 5.16602 19 11.499s6.33398 13.5 5.00098 21.5c0 3.33301 0.333008 11.333 1 24s1.66699 28.667 3 48s3 41.5 5 66.5s4.33301 51.167 7 78.5c24 2 47.5 4.83301 70.5 8.5s45.5 7.5 67.5 11.5l7.5 -90l6 -75
c1.66699 -21.333 2.83398 -38.5 3.50098 -51.5l1 -19.5c0 -8.66699 3.16699 -15.834 9.5 -21.501s13.5 -8.16699 21.5 -7.5c8.66699 0.666992 15.667 4 21 10s7.66602 13.333 6.99902 22l-1 20c-0.666992 13.333 -1.83398 31.333 -3.50098 54l-6 78l-7.5 92
c3.33301 1.33301 6.5 2.16602 9.5 2.49902s6.16699 0.833008 9.5 1.5c4 1.33301 8.16699 2.33301 12.5 3l12.5 2c8 1.33301 14.167 5.5 18.5 12.5s5.83301 14.5 4.5 22.5zM138.002 335.005c5.33301 42 10.835 80 16.502 114s11.5 64 17.5 90c6 27.333 11.667 47.833 17 61.5
s9.66602 23.5 12.999 29.5c2 -5.33301 5 -12.333 9 -21c3.33301 -9.33301 6.5 -20.333 9.5 -33l9.5 -42c5.33301 -26.667 10.5 -57.167 15.5 -91.5s10.167 -72.5 15.5 -114.5c-20.667 -4 -41.334 -7.66699 -62.001 -11s-42 -6 -64 -8c0.666992 4 1.16699 8.16699 1.5 12.5
s0.833008 8.83301 1.5 13.5zM206.004 704.005c-18 0 -33.333 5.99805 -46 17.998s-21 28 -25 48c-2 10.667 -2.33301 21.667 -1 33s4.33301 22.333 9 33s11 20.167 19 28.5s18 14.5 30 18.5c7.33301 2.66699 15 4 23 4c18 0 33.5 -7.16699 46.5 -21.5
s21.167 -33.166 24.5 -56.499c2 -22.667 -1 -42.667 -9 -60c-12 -23.333 -29.667 -37.666 -53 -42.999c-3.33301 -1.33301 -6.33301 -2 -9 -2h-9zM215.004 828.003c-0.666992 0 -1.33789 -0.331055 -2.00488 -0.998047c-7.33301 -2.66699 -12.666 -8.83398 -15.999 -18.501
s-4.33301 -19.167 -3 -28.5c0.666992 -2.66699 1.83398 -6.16699 3.50098 -10.5s4.5 -6.5 8.5 -6.5c0.666992 0 1.33398 0.166992 2.00098 0.5s1.33398 0.5 2.00098 0.5c7.33301 2 12 6.66699 14 14s3 12.666 3 15.999c0 10 -1.66699 18 -5 24s-5.66602 9.33301 -6.99902 10
z" />
    <glyph glyph-name="AE" unicode="&#xc6;" horiz-adv-x="651" 
d="M633 41c0.666992 -8 -1.66113 -15.1631 -6.99414 -21.4961s-12 -9.83301 -20 -10.5c-0.666992 0 -4.33398 -0.333008 -11.001 -1s-15.167 -1.33398 -25.5 -2.00098s-22.166 -1.5 -35.499 -2.5s-27.333 -1.83301 -42 -2.5c-11.333 -0.666992 -22 -1 -32 -1h-28
c-15.333 0 -28.333 0.333008 -39 1s-19.5 1.66699 -26.5 3s-12.833 2.66602 -17.5 3.99902s-8.33398 3 -11.001 5c-7.33301 4.66699 -12.5 11.334 -15.5 20.001s-5.5 19 -7.5 31c-1.33301 9.33301 -2.5 19.666 -3.5 30.999l-3.5 40c-1.33301 18.667 -2.33301 39.167 -3 61.5
s-1 46.833 -1 73.5c-22 -3.33301 -41.167 -5.5 -57.5 -6.5s-33.833 -2.16699 -52.5 -3.5c-5.33301 0 -11 -0.166992 -17 -0.5s-12 -0.833008 -18 -1.5c-12 -28.667 -22.833 -56 -32.5 -82l-26 -69.5c-7.66699 -20.333 -13.834 -37.333 -18.501 -51
s-7.33398 -22.834 -8.00098 -27.501c-0.666992 -6.66699 -3.16699 -12.5 -7.5 -17.5s-9.83301 -8.16699 -16.5 -9.5c-1.33301 -0.666992 -3.33301 -1 -6 -1c-7.33301 0 -13.833 2.16699 -19.5 6.5s-9.16699 10.166 -10.5 17.499c-0.666992 4.66699 -0.5 9.66699 0.5 15
s4.16699 15.666 9.5 30.999l11 32l14 40l18 47l25 65c-6.66699 1.33301 -12.334 4.33301 -17.001 9s-7.33398 10.667 -8.00098 18c-0.666992 8 1.66602 15.167 6.99902 21.5s12 9.83301 20 10.5c4 0.666992 8 1 12 1s7.66699 0.333008 11 1l8 18.5l8 19.5
c18.667 44 36.334 83.833 53.001 119.5s32.334 67.167 47.001 94.5c13.333 24 25.166 43.5 35.499 58.5s19.5 26.667 27.5 35s15 14.333 21 18s11.667 6.16699 17 7.5c2 0.666992 4.66699 1 8 1c8 2.66699 18.667 5 32 7c22 4 51.333 6 88 6
c15.333 0 30.166 -0.166992 44.499 -0.5s27.333 -0.666016 39 -0.999023s21 -0.833008 28 -1.5s10.833 -1 11.5 -1c8.66699 -0.666992 15.667 -4 21 -10s7.66602 -13.333 6.99902 -22c-0.666992 -8 -4 -14.833 -10 -20.5s-13.333 -7.83398 -22 -6.50098
c-9.33301 0 -19.666 0.333008 -30.999 1c-9.33301 0.666992 -20.166 1.16699 -32.499 1.5s-25.166 0.5 -38.499 0.5c-35.333 0 -61.333 -1 -78 -3s-27.667 -3.66699 -33 -5c-0.666992 -8.66699 -1.33398 -21.5 -2.00098 -38.5s-1.16699 -36.833 -1.5 -59.5
s-0.666016 -47.667 -0.999023 -75s-0.5 -55.666 -0.5 -84.999l211 6c8 0 15 -2.83301 21 -8.5s9 -12.5 9 -20.5c0.666992 -8.66699 -1.83301 -16 -7.5 -22s-12.834 -9 -21.501 -9l-212 -6c0.666992 -30 1.16699 -57.833 1.5 -83.5s1.16602 -49.167 2.49902 -70.5
c1.33301 -30 2.83301 -52.333 4.5 -67s3.16699 -24.667 4.5 -30c6 -1.33301 17.667 -2.33301 35 -3s45 -0.333984 83 0.999023l39.5 2c13 0.666992 24.5 1.66699 34.5 3c12 1.33301 22.667 2.33301 32 3c8.66699 0.666992 16 -1.66602 22 -6.99902s9.66699 -12.333 11 -21z
M190.005 320.004c19.333 1.33301 37.1689 2.66699 53.502 4s36.166 3.66602 59.499 6.99902v6c0 43.333 0.166992 85.666 0.5 126.999s1.16602 77.333 2.49902 108l-10.5 -17.5l-11.5 -20.5c-14 -25.333 -28.833 -54.666 -44.5 -87.999s-32.167 -70.666 -49.5 -111.999
c-1.33301 -2.66699 -2.33301 -5 -3 -7s-1.66699 -4.33301 -3 -7h6z" />
    <glyph glyph-name="Ccedilla" unicode="&#xc7;" horiz-adv-x="474" 
d="M209 -193c-3.33301 0 -6.83594 0.166992 -10.5029 0.5s-7.5 0.833008 -11.5 1.5c-8.66699 1.33301 -15.5 5 -20.5 11s-7.16699 13.333 -6.5 22c1.33301 8 5.16602 14.667 11.499 20s13.833 7.33301 22.5 6c16 -2 28.333 -1.5 37 1.5s14.334 6.83301 17.001 11.5
s2.33398 10.334 -0.999023 17.001c-3.33301 4.66699 -9.33301 8.5 -18 11.5s-19.667 3.16699 -33 0.5c-9.33301 -2 -18 0.333008 -26 7c-6.66699 6 -10 14 -10 24l5 66v5c-2.66699 0.666992 -5.33398 2 -8.00098 4c-24 13.333 -43.667 31.666 -59 54.999
c-35.333 50.667 -54.333 124.667 -57 222c-2 58.667 2.33301 112.667 13 162s27 92.666 49 129.999c20 34 43.667 60.833 71 80.5s56 30.5 86 32.5c21.333 1.33301 41.5 -1.83398 60.5 -9.50098s36.167 -19.167 51.5 -34.5c15.333 -16 27.666 -35.333 36.999 -58
s15.666 -48 18.999 -76c1.33301 -8.66699 -0.666992 -16.167 -6 -22.5s-12 -9.83301 -20 -10.5c-8.66699 -1.33301 -16.167 0.5 -22.5 5.5s-10.166 11.833 -11.499 20.5c-4 44 -17.333 77.333 -40 100c-17.333 18.667 -38.666 27 -63.999 25
c-19.333 -1.33301 -38.666 -9.16602 -57.999 -23.499s-36.333 -34.166 -51 -59.499c-6.66699 -11.333 -13.5 -25 -20.5 -41s-13.167 -34.667 -18.5 -56s-9.5 -45.666 -12.5 -72.999s-3.83301 -57.666 -2.5 -90.999c1.33301 -42 5.83301 -79 13.5 -111s18.5 -58 32.5 -78
c20.667 -30 47.667 -45.667 81 -47c17.333 0 34.833 3.83301 52.5 11.5s34.167 18.834 49.5 33.501c15.333 14 27.333 29.5 36 46.5s13.667 34.167 15 51.5c0.666992 8.66699 4 15.667 10 21s13 7.66602 21 6.99902c8.66699 -0.666992 15.667 -4 21 -10s8 -13 8 -21
c-1.33301 -25.333 -8.16602 -50 -20.499 -74s-29.166 -45.667 -50.499 -65c-20.667 -19.333 -43.167 -34.333 -67.5 -45s-48.5 -16 -72.5 -16h-2h-5l-1 -27c15.333 -1.33301 29.5 -5.33301 42.5 -12s23.5 -15.667 31.5 -27c8.66699 -12.667 13.167 -26.334 13.5 -41.001
s-3.16699 -28.334 -10.5 -41.001c-2 -3.33301 -5.16699 -7.5 -9.5 -12.5s-10 -9.83301 -17 -14.5s-15.667 -8.5 -26 -11.5s-22.833 -4.5 -37.5 -4.5z" />
    <glyph glyph-name="Egrave" unicode="&#xc8;" horiz-adv-x="415" 
d="M398 41c-0.666992 8 -4.16406 14.8369 -10.4971 20.5039s-13.5 7.83398 -21.5 6.50098l-9 -1c-6 -0.666992 -13.833 -1.33398 -23.5 -2.00098s-20.834 -1.33398 -33.501 -2.00098s-26 -1.33398 -40 -2.00098c-38 -1.33301 -65.667 -1.66602 -83 -0.999023
s-29.333 1.66699 -36 3c-1.33301 5.33301 -2.83301 15.166 -4.5 29.499s-3.16699 36.833 -4.5 67.5c-2 42 -3 93.333 -3 154l212 6c8 0 15 3 21 9s8.66699 13 8 21c0 8.66699 -3 15.834 -9 21.501s-13.333 8.16699 -22 7.5l-210 -5c0 29.333 0.166992 57.5 0.5 84.5
s0.666016 51.833 0.999023 74.5s0.666016 42.5 0.999023 59.5s0.833008 30.167 1.5 39.5c6 1.33301 17.167 3 33.5 5s42.5 2.66699 78.5 2c26.667 0 50.167 -0.5 70.5 -1.5s30.833 -1.5 31.5 -1.5c8 -0.666992 15.167 1.66602 21.5 6.99902s9.83301 12.333 10.5 21
s-1.83301 16 -7.5 22s-12.5 9.33301 -20.5 10c-0.666992 0 -4.66699 0.166992 -12 0.5s-16.666 0.833008 -27.999 1.5s-24.166 1 -38.499 1h-44.5c-18.667 0 -35.334 -0.5 -50.001 -1.5s-27.667 -2.16699 -39 -3.5c-4 -0.666992 -9.5 -1.66699 -16.5 -3
s-13.833 -3.66602 -20.5 -6.99902s-12.834 -7.66602 -18.501 -12.999s-8.83398 -12.333 -9.50098 -21c-0.666992 -4.66699 -1.33398 -15.5 -2.00098 -32.5s-1.16699 -38.167 -1.5 -63.5s-0.666016 -53.666 -0.999023 -84.999s-0.5 -63.333 -0.5 -96h-1
c-8 -0.666992 -14.833 -3.83398 -20.5 -9.50098s-8.5 -12.834 -8.5 -21.501c0.666992 -8 3.83398 -14.833 9.50098 -20.5s12.5 -8.5 20.5 -8.5c0 -36.667 0.5 -69.834 1.5 -99.501s2.16699 -55.834 3.5 -78.501c0.666992 -15.333 1.5 -28.833 2.5 -40.5
s2.16699 -21.834 3.5 -30.501c2 -12.667 4.66699 -23.167 8 -31.5s8.66602 -14.833 15.999 -19.5c5.33301 -3.33301 14.5 -6.5 27.5 -9.5s35.167 -4.5 66.5 -4.5c8.66699 0 17.834 0.166992 27.501 0.5s20.167 0.833008 31.5 1.5c29.333 1.33301 55.333 2.83301 78 4.5
s34.667 2.5 36 2.5c8.66699 1.33301 15.667 5 21 11s7.33301 13.333 6 22zM253.003 734.004c-8 0 -14.332 2.33398 -18.999 7.00098l-28.5 23.5c-8.33301 7 -16 14.167 -23 21.5s-14 15.166 -21 23.499s-14.5 18.166 -22.5 29.499c-5.33301 6.66699 -7.33301 14 -6 22
s5.66602 14.333 12.999 19c6.66699 5.33301 14 7.33301 22 6s14.333 -5.33301 19 -12l21 -27c6 -7.33301 12.167 -14.166 18.5 -20.499s13 -12.5 20 -18.5l25.5 -21c6 -5.33301 9.5 -12 10.5 -20s-1.16699 -15.333 -6.5 -22c-6 -7.33301 -13.667 -11 -23 -11z" />
    <glyph glyph-name="Eacute" unicode="&#xc9;" horiz-adv-x="415" 
d="M398 41c1.33301 -8.66699 -0.669922 -16.0039 -6.00293 -22.0039s-12.333 -9.66699 -21 -11c-1.33301 0 -13.333 -0.833008 -36 -2.5s-48.667 -3.16699 -78 -4.5c-11.333 -0.666992 -21.833 -1.16699 -31.5 -1.5s-18.834 -0.5 -27.501 -0.5
c-31.333 0 -53.5 1.5 -66.5 4.5s-22.167 6.16699 -27.5 9.5c-7.33301 4.66699 -12.666 11.167 -15.999 19.5s-6 18.833 -8 31.5c-1.33301 8.66699 -2.5 18.834 -3.5 30.501s-1.83301 25.167 -2.5 40.5c-1.33301 22.667 -2.5 48.834 -3.5 78.501s-1.5 62.834 -1.5 99.501
c-8 0 -14.833 2.83301 -20.5 8.5s-8.83398 12.5 -9.50098 20.5c0 8.66699 2.83301 15.834 8.5 21.501s12.5 8.83398 20.5 9.50098h1c0 32.667 0.166992 64.667 0.5 96s0.666016 59.666 0.999023 84.999s0.833008 46.5 1.5 63.5s1.33398 27.833 2.00098 32.5
c0.666992 8.66699 3.83398 15.667 9.50098 21s11.834 9.66602 18.501 12.999s13.5 5.66602 20.5 6.99902s12.5 2.33301 16.5 3c11.333 1.33301 24.333 2.5 39 3.5s31.334 1.5 50.001 1.5h44.5c14.333 0 27.166 -0.333008 38.499 -1s20.666 -1.16699 27.999 -1.5
s11.333 -0.5 12 -0.5c8 -0.666992 14.833 -4 20.5 -10s8.16699 -13.333 7.5 -22s-4.16699 -15.667 -10.5 -21s-13.5 -7.66602 -21.5 -6.99902c-0.666992 0 -11.167 0.5 -31.5 1.5s-43.833 1.5 -70.5 1.5c-36 0.666992 -62.167 0 -78.5 -2s-27.5 -3.66699 -33.5 -5
c-0.666992 -9.33301 -1.16699 -22.5 -1.5 -39.5s-0.666016 -36.833 -0.999023 -59.5s-0.666016 -47.5 -0.999023 -74.5s-0.5 -55.167 -0.5 -84.5l210 5c8.66699 0.666992 16 -1.83301 22 -7.5s9 -12.834 9 -21.501c0.666992 -8 -2 -15 -8 -21s-13 -9 -21 -9l-212 -6
c0 -60.667 1 -112 3 -154c1.33301 -30.667 2.83301 -53.167 4.5 -67.5s3.16699 -24.166 4.5 -29.499c6.66699 -1.33301 18.667 -2.33301 36 -3s45 -0.333984 83 0.999023c14 0.666992 27.333 1.33398 40 2.00098s23.834 1.33398 33.501 2.00098s17.5 1.33398 23.5 2.00098
l9 1c8 1.33301 15.167 -0.833984 21.5 -6.50098s9.83301 -12.5 10.5 -20.5zM161.997 733.996c-9.33301 0 -16.999 3.66602 -22.999 10.999c-5.33301 6.66699 -7.5 14 -6.5 22s4.5 14.667 10.5 20l25.5 21c7 6 13.667 12.167 20 18.5s12.5 13.166 18.5 20.499l21 27
c4.66699 6.66699 11 10.667 19 12s15.333 -0.666992 22 -6c7.33301 -4.66699 11.666 -11 12.999 -19s-0.666992 -15.333 -6 -22c-8 -11.333 -15.5 -21.166 -22.5 -29.499s-14 -16.166 -21 -23.499s-14.667 -14.5 -23 -21.5l-28.5 -23.5c-4.66699 -4.66699 -11 -7 -19 -7z
" />
    <glyph glyph-name="Ecircumflex" unicode="&#xca;" horiz-adv-x="415" 
d="M398 41c-0.666992 8 -4.16406 14.8369 -10.4971 20.5039s-13.5 7.83398 -21.5 6.50098l-9 -1c-6 -0.666992 -13.833 -1.33398 -23.5 -2.00098s-20.834 -1.33398 -33.501 -2.00098s-26 -1.33398 -40 -2.00098c-38 -1.33301 -65.667 -1.66602 -83 -0.999023
s-29.333 1.66699 -36 3c-1.33301 5.33301 -2.83301 15.166 -4.5 29.499s-3.16699 36.833 -4.5 67.5c-2 42 -3 93.333 -3 154l212 6c8 0 15 3 21 9s8.66699 13 8 21c0 8.66699 -3 15.834 -9 21.501s-13.333 8.16699 -22 7.5l-210 -5c0 29.333 0.166992 57.5 0.5 84.5
s0.666016 51.833 0.999023 74.5s0.666016 42.5 0.999023 59.5s0.833008 30.167 1.5 39.5c6 1.33301 17.167 3 33.5 5s42.5 2.66699 78.5 2c26.667 0 50.167 -0.5 70.5 -1.5s30.833 -1.5 31.5 -1.5c8 -0.666992 15.167 1.66602 21.5 6.99902s9.83301 12.333 10.5 21
s-1.83301 16 -7.5 22s-12.5 9.33301 -20.5 10c-0.666992 0 -4.66699 0.166992 -12 0.5s-16.666 0.833008 -27.999 1.5s-24.166 1 -38.499 1h-44.5c-18.667 0 -35.334 -0.5 -50.001 -1.5s-27.667 -2.16699 -39 -3.5c-4 -0.666992 -9.5 -1.66699 -16.5 -3
s-13.833 -3.66602 -20.5 -6.99902s-12.834 -7.66602 -18.501 -12.999s-8.83398 -12.333 -9.50098 -21c-0.666992 -4.66699 -1.33398 -15.5 -2.00098 -32.5s-1.16699 -38.167 -1.5 -63.5s-0.666016 -53.666 -0.999023 -84.999s-0.5 -63.333 -0.5 -96h-1
c-8 -0.666992 -14.833 -3.83398 -20.5 -9.50098s-8.5 -12.834 -8.5 -21.501c0.666992 -8 3.83398 -14.833 9.50098 -20.5s12.5 -8.5 20.5 -8.5c0 -36.667 0.5 -69.834 1.5 -99.501s2.16699 -55.834 3.5 -78.501c0.666992 -15.333 1.5 -28.833 2.5 -40.5
s2.16699 -21.834 3.5 -30.501c2 -12.667 4.66699 -23.167 8 -31.5s8.66602 -14.833 15.999 -19.5c5.33301 -3.33301 14.5 -6.5 27.5 -9.5s35.167 -4.5 66.5 -4.5c8.66699 0 17.834 0.166992 27.501 0.5s20.167 0.833008 31.5 1.5c29.333 1.33301 55.333 2.83301 78 4.5
s34.667 2.5 36 2.5c8.66699 1.33301 15.667 5 21 11s7.33301 13.333 6 22zM140.003 736.004c-4.66699 0 -8.99902 1.00098 -12.999 3.00098c-7.33301 3.33301 -12.333 9 -15 17s-2.33398 15.667 0.999023 23c0.666992 0.666992 3.5 5.66699 8.5 15
s11.167 19.666 18.5 30.999c13.333 20.667 25.166 35.5 35.499 44.5s21.166 13.5 32.499 13.5c19.333 0 41.666 -18.333 66.999 -55c7.33301 -11.333 13.5 -21.5 18.5 -30.5s7.83301 -13.833 8.5 -14.5c3.33301 -7.33301 3.83301 -14.833 1.5 -22.5
s-7.16602 -13.5 -14.499 -17.5s-14.833 -4.66699 -22.5 -2s-13.5 7.66699 -17.5 15c-1.33301 3.33301 -3.33301 6.66602 -6 9.99902l-14 23c-4.66699 7.33301 -8.66699 13.333 -12 18s-6.33301 8.33398 -9 11.001c-4.66699 -4.66699 -12 -15 -22 -31
c-3.33301 -4.66699 -6.16602 -9 -8.49902 -13s-4.16602 -7.66699 -5.49902 -11c-2 -4 -3.66699 -7.66699 -5 -11c-6.66699 -10.667 -15.667 -16 -27 -16z" />
    <glyph glyph-name="Edieresis" unicode="&#xcb;" horiz-adv-x="415" 
d="M398 41c1.33301 -8.66699 -0.669922 -16.0039 -6.00293 -22.0039s-12.333 -9.66699 -21 -11c-1.33301 0 -13.333 -0.833008 -36 -2.5s-48.667 -3.16699 -78 -4.5c-11.333 -0.666992 -21.833 -1.16699 -31.5 -1.5s-18.834 -0.5 -27.501 -0.5
c-31.333 0 -53.5 1.5 -66.5 4.5s-22.167 6.16699 -27.5 9.5c-7.33301 4.66699 -12.666 11.167 -15.999 19.5s-6 18.833 -8 31.5c-1.33301 8.66699 -2.5 18.834 -3.5 30.501s-1.83301 25.167 -2.5 40.5c-1.33301 22.667 -2.5 48.834 -3.5 78.501s-1.5 62.834 -1.5 99.501
c-8 0 -14.833 2.83301 -20.5 8.5s-8.83398 12.5 -9.50098 20.5c0 8.66699 2.83301 15.834 8.5 21.501s12.5 8.83398 20.5 9.50098h1c0 32.667 0.166992 64.667 0.5 96s0.666016 59.666 0.999023 84.999s0.833008 46.5 1.5 63.5s1.33398 27.833 2.00098 32.5
c0.666992 8.66699 3.83398 15.667 9.50098 21s11.834 9.66602 18.501 12.999s13.5 5.66602 20.5 6.99902s12.5 2.33301 16.5 3c11.333 1.33301 24.333 2.5 39 3.5s31.334 1.5 50.001 1.5h44.5c14.333 0 27.166 -0.333008 38.499 -1s20.666 -1.16699 27.999 -1.5
s11.333 -0.5 12 -0.5c8 -0.666992 14.833 -4 20.5 -10s8.16699 -13.333 7.5 -22s-4.16699 -15.667 -10.5 -21s-13.5 -7.66602 -21.5 -6.99902c-0.666992 0 -11.167 0.5 -31.5 1.5s-43.833 1.5 -70.5 1.5c-36 0.666992 -62.167 0 -78.5 -2s-27.5 -3.66699 -33.5 -5
c-0.666992 -9.33301 -1.16699 -22.5 -1.5 -39.5s-0.666016 -36.833 -0.999023 -59.5s-0.666016 -47.5 -0.999023 -74.5s-0.5 -55.167 -0.5 -84.5l210 5c8.66699 0.666992 16 -1.83301 22 -7.5s9 -12.834 9 -21.501c0.666992 -8 -2 -15 -8 -21s-13 -9 -21 -9l-212 -6
c0 -60.667 1 -112 3 -154c1.33301 -30.667 2.83301 -53.167 4.5 -67.5s3.16699 -24.166 4.5 -29.499c6.66699 -1.33301 18.667 -2.33301 36 -3s45 -0.333984 83 0.999023c14 0.666992 27.333 1.33398 40 2.00098s23.834 1.33398 33.501 2.00098s17.5 1.33398 23.5 2.00098
l9 1c8 1.33301 15.167 -0.833984 21.5 -6.50098s9.83301 -12.5 10.5 -20.5zM231.997 756.996c-6 4.66699 -9.99902 12.333 -11.999 23c-0.666992 10 2.16602 18.667 8.49902 26s14.5 11.333 24.5 12h3c10 0 17.667 -3 23 -9c6.66699 -5.33301 10.667 -13 12 -23
s-1.16699 -18.667 -7.5 -26s-14.5 -11.333 -24.5 -12h-3c-9.33301 0 -17.333 3 -24 9zM133.998 757.995c-6 4.66699 -9.99902 12.333 -11.999 23c-0.666992 10 2.16602 18.667 8.49902 26s14.5 11.333 24.5 12h3c10 0 17.667 -3 23 -9c6.66699 -5.33301 10.667 -13 12 -23
s-1.16699 -18.667 -7.5 -26s-14.5 -11.333 -24.5 -12h-3c-9.33301 0 -17.333 3 -24 9z" />
    <glyph glyph-name="Igrave" unicode="&#xcc;" horiz-adv-x="507" 
d="M267 602l47.999 -0.00195312h42.5c14.333 0 28 0.333008 41 1s24.833 1.33398 35.5 2.00098s19 1.66699 25 3c8 2 14.167 6.5 18.5 13.5s5.5 14.5 3.5 22.5c-1.33301 8 -5.5 14.167 -12.5 18.5s-14.5 5.83301 -22.5 4.5c-5.33301 -1.33301 -13.833 -2.33301 -25.5 -3
s-25.334 -1.16699 -41.001 -1.5s-32.834 -0.5 -51.501 -0.5h-57v3c1.33301 8.66699 -0.666992 16 -6 22s-12.333 9.66699 -21 11c-8 0.666992 -15.167 -1.66602 -21.5 -6.99902s-10.166 -12 -11.499 -20v-8c-28 0.666992 -52.833 1.33398 -74.5 2.00098
s-36.834 1.66699 -45.501 3c-8 3.33301 -16 3.66602 -24 0.999023c-7.33301 -3.33301 -12.833 -8.33301 -16.5 -15s-4.5 -14 -2.5 -22c1.33301 -4.66699 4 -9.16699 8 -13.5s10.667 -7.16602 20 -8.49902c1.33301 -0.666992 3 -1 5 -1s4.66699 -0.333008 8 -1
c4.66699 -0.666992 10.167 -1.16699 16.5 -1.5s13.833 -0.5 22.5 -0.5c11.333 -0.666992 23.5 -1.16699 36.5 -1.5s27.167 -0.833008 42.5 -1.5c-2.66699 -45.333 -4.5 -92.666 -5.5 -141.999s-1.33301 -97.166 -1 -143.499s0.833008 -90 1.5 -131s1.66699 -76.167 3 -105.5
c-10.667 -0.666992 -21.667 -1.16699 -33 -1.5s-23.666 -0.833008 -36.999 -1.5c-25.333 -1.33301 -51.666 -2.33301 -78.999 -3c-8 -0.666992 -14.833 -3.83398 -20.5 -9.50098s-8.5 -12.834 -8.5 -21.501c0.666992 -8 3.83398 -14.833 9.50098 -20.5s12.5 -8.5 20.5 -8.5
h2c28 0.666992 54 1.66699 78 3c13.333 0.666992 25.833 1.16699 37.5 1.5s22.834 0.833008 33.501 1.5c1.33301 -6.66699 4.83301 -12.167 10.5 -16.5s12.167 -6.5 19.5 -6.5h1c7.33301 0.666992 13.5 3.16699 18.5 7.5s8.16699 10.166 9.5 17.499
c29.333 1.33301 56.5 1.83301 81.5 1.5s51.833 -1.16602 80.5 -2.49902c8 0 15 2.66699 21 8s9.33301 12.333 10 21c0.666992 8 -1.83301 15 -7.5 21s-12.834 9.33301 -21.501 10c-29.333 1.33301 -56.833 2.16602 -82.5 2.49902s-53.5 -0.166992 -83.5 -1.5
c-1.33301 29.333 -2.33301 64.333 -3 105s-1.16699 84.167 -1.5 130.5s0 93.833 1 142.5s2.83301 95.667 5.5 141zM298.999 733.998c-8 0 -14.332 2.33398 -18.999 7.00098l-28.5 23.5c-8.33301 7 -16 14.167 -23 21.5s-14 15.166 -21 23.499s-14.5 18.166 -22.5 29.499
c-5.33301 6.66699 -7.33301 14 -6 22s5.66602 14.333 12.999 19c6.66699 5.33301 14 7.33301 22 6s14.333 -5.33301 19 -12l21 -27c6 -7.33301 12.167 -14.166 18.5 -20.499s13 -12.5 20 -18.5l25.5 -21c6 -5.33301 9.5 -12 10.5 -20s-1.16699 -15.333 -6.5 -22
c-6 -7.33301 -13.667 -11 -23 -11z" />
    <glyph glyph-name="Iacute" unicode="&#xcd;" horiz-adv-x="507" 
d="M267 602c-2.66699 -45.333 -4.49902 -92.3311 -5.49902 -140.998s-1.33301 -96.167 -1 -142.5s0.833008 -89.833 1.5 -130.5s1.66699 -75.667 3 -105c30 1.33301 57.833 1.83301 83.5 1.5s53.167 -1.16602 82.5 -2.49902c8.66699 -0.666992 15.834 -4 21.501 -10
s8.16699 -13 7.5 -21c-0.666992 -8.66699 -4 -15.667 -10 -21s-13 -8 -21 -8c-28.667 1.33301 -55.5 2.16602 -80.5 2.49902s-52.167 -0.166992 -81.5 -1.5c-1.33301 -7.33301 -4.5 -13.166 -9.5 -17.499s-11.167 -6.83301 -18.5 -7.5h-1
c-7.33301 0 -13.833 2.16699 -19.5 6.5s-9.16699 9.83301 -10.5 16.5c-10.667 -0.666992 -21.834 -1.16699 -33.501 -1.5s-24.167 -0.833008 -37.5 -1.5c-24 -1.33301 -50 -2.33301 -78 -3h-2c-8 0 -14.833 2.83301 -20.5 8.5s-8.83398 12.5 -9.50098 20.5
c0 8.66699 2.83301 15.834 8.5 21.501s12.5 8.83398 20.5 9.50098c27.333 0.666992 53.666 1.66699 78.999 3c13.333 0.666992 25.666 1.16699 36.999 1.5s22.333 0.833008 33 1.5c-1.33301 29.333 -2.33301 64.5 -3 105.5s-1.16699 84.667 -1.5 131s0 94.166 1 143.499
s2.83301 96.666 5.5 141.999c-15.333 0.666992 -29.5 1.16699 -42.5 1.5s-25.167 0.833008 -36.5 1.5c-8.66699 0 -16.167 0.166992 -22.5 0.5s-11.833 0.833008 -16.5 1.5c-3.33301 0.666992 -6 1 -8 1s-3.66699 0.333008 -5 1c-9.33301 1.33301 -16 4.16602 -20 8.49902
s-6.66699 8.83301 -8 13.5c-2 8 -1.16699 15.333 2.5 22s9.16699 11.667 16.5 15c8 2.66699 16 2.33398 24 -0.999023c8.66699 -1.33301 23.834 -2.33301 45.501 -3s46.5 -1.33398 74.5 -2.00098v8c1.33301 8 5.16602 14.667 11.499 20s13.5 7.66602 21.5 6.99902
c8.66699 -1.33301 15.667 -5 21 -11s7.33301 -13.333 6 -22v-3h57c18.667 0 35.834 0.166992 51.501 0.5s29.334 0.833008 41.001 1.5s20.167 1.66699 25.5 3c8 1.33301 15.5 -0.166992 22.5 -4.5s11.167 -10.5 12.5 -18.5c2 -8 0.833008 -15.5 -3.5 -22.5
s-10.5 -11.5 -18.5 -13.5c-6 -1.33301 -14.333 -2.33301 -25 -3s-22.5 -1.33398 -35.5 -2.00098s-26.667 -1 -41 -1h-42.5h-48zM208.001 734.002c-9.33301 0 -16.999 3.66602 -22.999 10.999c-5.33301 6.66699 -7.5 14 -6.5 22s4.5 14.667 10.5 20l25.5 21
c7 6 13.667 12.167 20 18.5s12.5 13.166 18.5 20.499l21 27c4.66699 6.66699 11 10.667 19 12s15.333 -0.666992 22 -6c7.33301 -4.66699 11.666 -11 12.999 -19s-0.666992 -15.333 -6 -22c-8 -11.333 -15.5 -21.166 -22.5 -29.499s-14 -16.166 -21 -23.499
s-14.667 -14.5 -23 -21.5l-28.5 -23.5c-4.66699 -4.66699 -11 -7 -19 -7z" />
    <glyph glyph-name="Icircumflex" unicode="&#xce;" horiz-adv-x="507" 
d="M267 602l47.999 -0.00195312h42.5c14.333 0 28 0.333008 41 1s24.833 1.33398 35.5 2.00098s19 1.66699 25 3c8 2 14.167 6.5 18.5 13.5s5.5 14.5 3.5 22.5c-1.33301 8 -5.5 14.167 -12.5 18.5s-14.5 5.83301 -22.5 4.5c-5.33301 -1.33301 -13.833 -2.33301 -25.5 -3
s-25.334 -1.16699 -41.001 -1.5s-32.834 -0.5 -51.501 -0.5h-57v3c1.33301 8.66699 -0.666992 16 -6 22s-12.333 9.66699 -21 11c-8 0.666992 -15.167 -1.66602 -21.5 -6.99902s-10.166 -12 -11.499 -20v-8c-28 0.666992 -52.833 1.33398 -74.5 2.00098
s-36.834 1.66699 -45.501 3c-8 3.33301 -16 3.66602 -24 0.999023c-7.33301 -3.33301 -12.833 -8.33301 -16.5 -15s-4.5 -14 -2.5 -22c1.33301 -4.66699 4 -9.16699 8 -13.5s10.667 -7.16602 20 -8.49902c1.33301 -0.666992 3 -1 5 -1s4.66699 -0.333008 8 -1
c4.66699 -0.666992 10.167 -1.16699 16.5 -1.5s13.833 -0.5 22.5 -0.5c11.333 -0.666992 23.5 -1.16699 36.5 -1.5s27.167 -0.833008 42.5 -1.5c-2.66699 -45.333 -4.5 -92.666 -5.5 -141.999s-1.33301 -97.166 -1 -143.499s0.833008 -90 1.5 -131s1.66699 -76.167 3 -105.5
c-10.667 -0.666992 -21.667 -1.16699 -33 -1.5s-23.666 -0.833008 -36.999 -1.5c-25.333 -1.33301 -51.666 -2.33301 -78.999 -3c-8 -0.666992 -14.833 -3.83398 -20.5 -9.50098s-8.5 -12.834 -8.5 -21.501c0.666992 -8 3.83398 -14.833 9.50098 -20.5s12.5 -8.5 20.5 -8.5
h2c28 0.666992 54 1.66699 78 3c13.333 0.666992 25.833 1.16699 37.5 1.5s22.834 0.833008 33.501 1.5c1.33301 -6.66699 4.83301 -12.167 10.5 -16.5s12.167 -6.5 19.5 -6.5h1c7.33301 0.666992 13.5 3.16699 18.5 7.5s8.16699 10.166 9.5 17.499
c29.333 1.33301 56.5 1.83301 81.5 1.5s51.833 -1.16602 80.5 -2.49902c8 0 15 2.66699 21 8s9.33301 12.333 10 21c0.666992 8 -1.83301 15 -7.5 21s-12.834 9.33301 -21.501 10c-29.333 1.33301 -56.833 2.16602 -82.5 2.49902s-53.5 -0.166992 -83.5 -1.5
c-1.33301 29.333 -2.33301 64.333 -3 105s-1.16699 84.167 -1.5 130.5s0 93.833 1 142.5s2.83301 95.667 5.5 141zM185.999 735.998c-4.66699 0 -8.99902 1.00098 -12.999 3.00098c-7.33301 3.33301 -12.333 9 -15 17s-2.33398 15.667 0.999023 23
c0.666992 0.666992 3.5 5.66699 8.5 15s11.167 19.666 18.5 30.999c13.333 20.667 25.166 35.5 35.499 44.5s21.166 13.5 32.499 13.5c19.333 0 41.666 -18.333 66.999 -55c7.33301 -11.333 13.5 -21.5 18.5 -30.5s7.83301 -13.833 8.5 -14.5
c3.33301 -7.33301 3.83301 -14.833 1.5 -22.5s-7.16602 -13.5 -14.499 -17.5s-14.833 -4.66699 -22.5 -2s-13.5 7.66699 -17.5 15c-1.33301 3.33301 -3.33301 6.66602 -6 9.99902l-14 23c-4.66699 7.33301 -8.66699 13.333 -12 18s-6.33301 8.33398 -9 11.001
c-4.66699 -4.66699 -12 -15 -22 -31c-3.33301 -4.66699 -6.16602 -9 -8.49902 -13s-4.16602 -7.66699 -5.49902 -11c-2 -4 -3.66699 -7.66699 -5 -11c-6.66699 -10.667 -15.667 -16 -27 -16z" />
    <glyph glyph-name="Idieresis" unicode="&#xcf;" horiz-adv-x="507" 
d="M267 602c-2.66699 -45.333 -4.49902 -92.3311 -5.49902 -140.998s-1.33301 -96.167 -1 -142.5s0.833008 -89.833 1.5 -130.5s1.66699 -75.667 3 -105c30 1.33301 57.833 1.83301 83.5 1.5s53.167 -1.16602 82.5 -2.49902c8.66699 -0.666992 15.834 -4 21.501 -10
s8.16699 -13 7.5 -21c-0.666992 -8.66699 -4 -15.667 -10 -21s-13 -8 -21 -8c-28.667 1.33301 -55.5 2.16602 -80.5 2.49902s-52.167 -0.166992 -81.5 -1.5c-1.33301 -7.33301 -4.5 -13.166 -9.5 -17.499s-11.167 -6.83301 -18.5 -7.5h-1
c-7.33301 0 -13.833 2.16699 -19.5 6.5s-9.16699 9.83301 -10.5 16.5c-10.667 -0.666992 -21.834 -1.16699 -33.501 -1.5s-24.167 -0.833008 -37.5 -1.5c-24 -1.33301 -50 -2.33301 -78 -3h-2c-8 0 -14.833 2.83301 -20.5 8.5s-8.83398 12.5 -9.50098 20.5
c0 8.66699 2.83301 15.834 8.5 21.501s12.5 8.83398 20.5 9.50098c27.333 0.666992 53.666 1.66699 78.999 3c13.333 0.666992 25.666 1.16699 36.999 1.5s22.333 0.833008 33 1.5c-1.33301 29.333 -2.33301 64.5 -3 105.5s-1.16699 84.667 -1.5 131s0 94.166 1 143.499
s2.83301 96.666 5.5 141.999c-15.333 0.666992 -29.5 1.16699 -42.5 1.5s-25.167 0.833008 -36.5 1.5c-8.66699 0 -16.167 0.166992 -22.5 0.5s-11.833 0.833008 -16.5 1.5c-3.33301 0.666992 -6 1 -8 1s-3.66699 0.333008 -5 1c-9.33301 1.33301 -16 4.16602 -20 8.49902
s-6.66699 8.83301 -8 13.5c-2 8 -1.16699 15.333 2.5 22s9.16699 11.667 16.5 15c8 2.66699 16 2.33398 24 -0.999023c8.66699 -1.33301 23.834 -2.33301 45.501 -3s46.5 -1.33398 74.5 -2.00098v8c1.33301 8 5.16602 14.667 11.499 20s13.5 7.66602 21.5 6.99902
c8.66699 -1.33301 15.667 -5 21 -11s7.33301 -13.333 6 -22v-3h57c18.667 0 35.834 0.166992 51.501 0.5s29.334 0.833008 41.001 1.5s20.167 1.66699 25.5 3c8 1.33301 15.5 -0.166992 22.5 -4.5s11.167 -10.5 12.5 -18.5c2 -8 0.833008 -15.5 -3.5 -22.5
s-10.5 -11.5 -18.5 -13.5c-6 -1.33301 -14.333 -2.33301 -25 -3s-22.5 -1.33398 -35.5 -2.00098s-26.667 -1 -41 -1h-42.5h-48zM278.001 757.002c-6 4.66699 -9.99902 12.333 -11.999 23c-0.666992 10 2.16602 18.667 8.49902 26s14.5 11.333 24.5 12h3
c10 0 17.667 -3 23 -9c6.66699 -5.33301 10.667 -13 12 -23s-1.16699 -18.667 -7.5 -26s-14.5 -11.333 -24.5 -12h-3c-9.33301 0 -17.333 3 -24 9zM180.002 758.001c-6 4.66699 -9.99902 12.333 -11.999 23c-0.666992 10 2.16602 18.667 8.49902 26s14.5 11.333 24.5 12h3
c10 0 17.667 -3 23 -9c6.66699 -5.33301 10.667 -13 12 -23s-1.16699 -18.667 -7.5 -26s-14.5 -11.333 -24.5 -12h-3c-9.33301 0 -17.333 3 -24 9z" />
    <glyph glyph-name="Eth" unicode="&#xd0;" horiz-adv-x="462" 
d="M147 -1c-12.667 0 -22.8262 0.500977 -30.4932 1.50098s-12.167 1.5 -13.5 1.5c-7.33301 1.33301 -13.333 4.83301 -18 10.5s-7 12.167 -7 19.5c1.33301 44 2 87.167 2 129.5v126.5c-0.666992 0.666992 -3 1.16699 -7 1.5s-12.667 1.16602 -26 2.49902
c-8 1.33301 -14.833 5 -20.5 11s-8.16699 13 -7.5 21s4.16699 14.833 10.5 20.5s13.5 8.16699 21.5 7.5c5.33301 -0.666992 10.333 -1.16699 15 -1.5s9.66699 -0.5 15 -0.5c0 48 0.166992 95.333 0.5 142s1.16602 93 2.49902 139c-1.33301 0 -2.33301 -0.166992 -3 -0.5
s-1.33398 -0.5 -2.00098 -0.5h-1c-8 -2 -15.5 -1 -22.5 3s-11.833 10 -14.5 18c-2 8 -1 15.5 3 22.5s10 11.833 18 14.5c1.33301 0 10.666 1.83301 27.999 5.5s38.666 5.5 63.999 5.5s53.166 -3.5 83.499 -10.5s59.5 -20.833 87.5 -41.5
c74 -55.333 112.667 -149.333 116 -282c3.33301 -137.333 -31.334 -237.666 -104.001 -300.999c-16 -14 -32.833 -25.167 -50.5 -33.5s-34.834 -14.833 -51.501 -19.5s-32.5 -7.83398 -47.5 -9.50098s-28.5 -2.5 -40.5 -2.5zM139.008 59.001l17.998 -0.000976562
c6.66699 0 13.667 0.333008 21 1c47.333 6 87.333 22.667 120 50c58.667 50 86.334 134.667 83.001 254c-2 112.667 -32.667 191 -92 235c-36.667 26.667 -82 40 -136 40h-9v-2c-2 -48 -3.16699 -96 -3.5 -144s-0.5 -97 -0.5 -147h25.5c7 0 13.667 0.166992 20 0.5
s13.333 0.833008 21 1.5s17.5 1.33398 29.5 2.00098c8.66699 0.666992 16 -1.66602 22 -6.99902s9.33301 -12 10 -20c0.666992 -8.66699 -1.83301 -16 -7.5 -22s-12.5 -9.33301 -20.5 -10c-15.333 -1.33301 -31.166 -2.33301 -47.499 -3s-33.833 -1 -52.5 -1v-113.5
c0 -37.667 -0.333008 -75.834 -1 -114.501z" />
    <glyph glyph-name="Ntilde" unicode="&#xd1;" horiz-adv-x="503" 
d="M90 -2c-8 0 -14.8271 2.82812 -20.4941 8.49512s-8.83398 12.5 -9.50098 20.5c0 0.666992 -0.166992 10.167 -0.5 28.5s-0.833008 42.5 -1.5 72.5s-1.33398 64 -2.00098 102s-1 76.667 -1 116c-0.666992 46.667 -1 88.334 -1 125.001s0.666992 68.667 2 96
c0.666992 16 1.16699 30.333 1.5 43s1.16602 23.334 2.49902 32.001c0.666992 5.33301 1.33398 10 2.00098 14s1.33398 7.66699 2.00098 11c3.33301 11.333 7.5 19 12.5 23s10.167 6.33301 15.5 7c2.66699 0.666992 7.5 0.5 14.5 -0.5s13.167 -6.16699 18.5 -15.5
c1.33301 -1.33301 3.33301 -4.66602 6 -9.99902c1.33301 -3.33301 3.16602 -7.5 5.49902 -12.5l8.5 -18.5l18.5 -45l23.5 -57l60.5 -146.5c21.667 -52.333 43.5 -102.5 65.5 -150.5c11.333 -25.333 22.166 -48.333 32.499 -69s19.833 -38.667 28.5 -54
c2.66699 -4 5 -7.83301 7 -11.5l6 -10.5c0.666992 8 1.16699 17.833 1.5 29.5s0.5 25.167 0.5 40.5c1.33301 54.667 0.333008 125.334 -3 212.001c-1.33301 36.667 -2.5 72.167 -3.5 106.5s-2.16699 65 -3.5 92s-2.33301 48.667 -3 65s-1 24.833 -1 25.5
c0 8 2.66699 15 8 21s12.333 9.33301 21 10c8 0.666992 15 -1.83301 21 -7.5s9.33301 -12.5 10 -20.5c0 -0.666992 0.5 -10 1.5 -28s2 -41.833 3 -71.5l3.5 -100.5l4 -114c1.33301 -46 2.16602 -87.167 2.49902 -123.5s-0.166992 -67.833 -1.5 -94.5
c0 -16.667 -0.333008 -31.167 -1 -43.5s-1.66699 -23.166 -3 -32.499c-0.666992 -5.33301 -1.33398 -10.166 -2.00098 -14.499s-1.33398 -8.16602 -2.00098 -11.499c-4.66699 -15.333 -13.667 -25 -27 -29c-16 -4 -32 2 -48 18c-4.66699 5.33301 -9.5 11.166 -14.5 17.499
s-10.167 14.166 -15.5 23.499c-18.667 30 -40.667 72.333 -66 127c-12 25.333 -24 52 -36 80l-36 84l-34.5 82.5l-31.5 75.5l-15 39c0 -2.66699 -0.166992 -5.16699 -0.5 -7.5s-0.5 -5.16602 -0.5 -8.49902c-1.33301 -55.333 -1.33301 -126.666 0 -213.999
c0 -37.333 0.333008 -73.666 1 -108.999s1.33398 -66.833 2.00098 -94.5s1.16699 -49.834 1.5 -66.501l0.5 -25c0.666992 -8.66699 -1.83301 -15.834 -7.5 -21.501s-12.834 -8.83398 -21.501 -9.50098h-1zM153.006 723.995c-7.33301 0 -14.002 2.67188 -20.002 8.00488
s-9.33301 11.666 -10 18.999s-0.833984 15.333 -0.500977 24s1.33301 17.167 3 25.5s4.66699 16 9 23s10.166 12.833 17.499 17.5c8.66699 5.33301 17.834 8 27.501 8s19.5 -1.66699 29.5 -5s20.167 -8 30.5 -14l30.5 -18l19 -11.5c6 -3.66699 12 -6.83398 18 -9.50098
c3.33301 -2 6 -3.33301 8 -4s3.66699 -1.33398 5 -2.00098c0.666992 2.66699 1 10.667 1 24c-1.33301 8 0.833984 15.167 6.50098 21.5s12.5 9.83301 20.5 10.5c8.66699 0.666992 16 -1.83301 22 -7.5s9.33301 -12.5 10 -20.5c1.33301 -13.333 0.666016 -28 -2.00098 -44
s-11 -28.667 -25 -38c-12.667 -7.33301 -25.167 -9.5 -37.5 -6.5s-20.833 5.5 -25.5 7.5c-8.66699 3.33301 -17.167 7.66602 -25.5 12.999s-17.166 10.666 -26.499 15.999l-19.5 11.5l-18.5 10.5c-4 1.33301 -7.33301 2.5 -10 3.5s-4.66699 1.83301 -6 2.5
c-0.666992 -2.66699 -1.16699 -6.5 -1.5 -11.5s-0.166016 -12.167 0.500977 -21.5c0.666992 -8.66699 -1.66602 -16 -6.99902 -22s-12.333 -9.33301 -21 -10h-2z" />
    <glyph glyph-name="Ograve" unicode="&#xd2;" horiz-adv-x="583" 
d="M271 -2c-58 0 -107.327 23.001 -147.994 69.001c-34.667 39.333 -58 91.333 -70 156c-8.66699 44 -11.334 89.167 -8.00098 135.5s12.666 90.166 27.999 131.499c16 44.667 37.667 83.334 65 116.001c31.333 36 66.666 62 105.999 78c24.667 9.33301 48 14 70 14
c31.333 0 60.333 -8.33301 87 -25c23.333 -14.667 45.333 -36.334 66 -65.001c17.333 -25.333 31.666 -54.333 42.999 -87s19.666 -67.667 24.999 -105c5.33301 -44.667 5.66602 -88.167 0.999023 -130.5s-14.334 -81.5 -29.001 -117.5
c-36.667 -86.667 -95 -140.667 -175 -162c-21.333 -5.33301 -41.666 -8 -60.999 -8zM314.006 638.001c-16 0 -31.6631 -3.33301 -46.9961 -10c-19.333 -8 -36.5 -18 -51.5 -30s-28 -25.333 -39 -40s-20.333 -29.5 -28 -44.5s-13.834 -29.5 -18.501 -43.5
c-13.333 -36.667 -21.5 -75.5 -24.5 -116.5s-0.833008 -80.833 6.5 -119.5c2 -10 6 -24.833 12 -44.5s15 -39.334 27 -59.001s27.667 -36.667 47 -51s43.666 -21.5 72.999 -21.5c14.667 0 30 2 46 6c34 8.66699 62.167 25 84.5 49s39.833 52 52.5 84s20.667 66.333 24 103
s2.66602 72.667 -2.00098 108c-4 28 -10.333 55.667 -19 83s-19.834 51.833 -33.501 73.5s-29.667 39.334 -48 53.001s-38.833 20.5 -61.5 20.5zM337.01 734.001c-8 0 -14.332 2.33398 -18.999 7.00098l-28.5 23.5c-8.33301 7 -16 14.167 -23 21.5s-14 15.166 -21 23.499
s-14.5 18.166 -22.5 29.499c-5.33301 6.66699 -7.33301 14 -6 22s5.66602 14.333 12.999 19c6.66699 5.33301 14 7.33301 22 6s14.333 -5.33301 19 -12l21 -27c6 -7.33301 12.167 -14.166 18.5 -20.499s13 -12.5 20 -18.5l25.5 -21c6 -5.33301 9.5 -12 10.5 -20
s-1.16699 -15.333 -6.5 -22c-6 -7.33301 -13.667 -11 -23 -11z" />
    <glyph glyph-name="Oacute" unicode="&#xd3;" horiz-adv-x="583" 
d="M271 -2c-58 0 -107.327 23.001 -147.994 69.001c-34.667 39.333 -58 91.333 -70 156c-8.66699 44 -11.334 89.167 -8.00098 135.5s12.666 90.166 27.999 131.499c16 44.667 37.667 83.334 65 116.001c31.333 36 66.666 62 105.999 78c24.667 9.33301 48 14 70 14
c31.333 0 60.333 -8.33301 87 -25c23.333 -14.667 45.333 -36.334 66 -65.001c17.333 -25.333 31.666 -54.333 42.999 -87s19.666 -67.667 24.999 -105c5.33301 -44.667 5.66602 -88.167 0.999023 -130.5s-14.334 -81.5 -29.001 -117.5
c-36.667 -86.667 -95 -140.667 -175 -162c-21.333 -5.33301 -41.666 -8 -60.999 -8zM314.006 638.001c-16 0 -31.6631 -3.33301 -46.9961 -10c-19.333 -8 -36.5 -18 -51.5 -30s-28 -25.333 -39 -40s-20.333 -29.5 -28 -44.5s-13.834 -29.5 -18.501 -43.5
c-13.333 -36.667 -21.5 -75.5 -24.5 -116.5s-0.833008 -80.833 6.5 -119.5c2 -10 6 -24.833 12 -44.5s15 -39.334 27 -59.001s27.667 -36.667 47 -51s43.666 -21.5 72.999 -21.5c14.667 0 30 2 46 6c34 8.66699 62.167 25 84.5 49s39.833 52 52.5 84s20.667 66.333 24 103
s2.66602 72.667 -2.00098 108c-4 28 -10.333 55.667 -19 83s-19.834 51.833 -33.501 73.5s-29.667 39.334 -48 53.001s-38.833 20.5 -61.5 20.5zM246.01 734.001c-9.33301 0 -16.999 3.66602 -22.999 10.999c-5.33301 6.66699 -7.5 14 -6.5 22s4.5 14.667 10.5 20l25.5 21
c7 6 13.667 12.167 20 18.5s12.5 13.166 18.5 20.499l21 27c4.66699 6.66699 11 10.667 19 12s15.333 -0.666992 22 -6c7.33301 -4.66699 11.666 -11 12.999 -19s-0.666992 -15.333 -6 -22c-8 -11.333 -15.5 -21.166 -22.5 -29.499s-14 -16.166 -21 -23.499
s-14.667 -14.5 -23 -21.5l-28.5 -23.5c-4.66699 -4.66699 -11 -7 -19 -7z" />
    <glyph glyph-name="Ocircumflex" unicode="&#xd4;" horiz-adv-x="583" 
d="M271 -2c-58 0 -107.327 23.001 -147.994 69.001c-34.667 39.333 -58 91.333 -70 156c-8.66699 44 -11.334 89.167 -8.00098 135.5s12.666 90.166 27.999 131.499c16 44.667 37.667 83.334 65 116.001c31.333 36 66.666 62 105.999 78c24.667 9.33301 48 14 70 14
c31.333 0 60.333 -8.33301 87 -25c23.333 -14.667 45.333 -36.334 66 -65.001c17.333 -25.333 31.666 -54.333 42.999 -87s19.666 -67.667 24.999 -105c5.33301 -44.667 5.66602 -88.167 0.999023 -130.5s-14.334 -81.5 -29.001 -117.5
c-36.667 -86.667 -95 -140.667 -175 -162c-21.333 -5.33301 -41.666 -8 -60.999 -8zM314.006 638.001c-16 0 -31.6631 -3.33301 -46.9961 -10c-19.333 -8 -36.5 -18 -51.5 -30s-28 -25.333 -39 -40s-20.333 -29.5 -28 -44.5s-13.834 -29.5 -18.501 -43.5
c-13.333 -36.667 -21.5 -75.5 -24.5 -116.5s-0.833008 -80.833 6.5 -119.5c2 -10 6 -24.833 12 -44.5s15 -39.334 27 -59.001s27.667 -36.667 47 -51s43.666 -21.5 72.999 -21.5c14.667 0 30 2 46 6c34 8.66699 62.167 25 84.5 49s39.833 52 52.5 84s20.667 66.333 24 103
s2.66602 72.667 -2.00098 108c-4 28 -10.333 55.667 -19 83s-19.834 51.833 -33.501 73.5s-29.667 39.334 -48 53.001s-38.833 20.5 -61.5 20.5zM224.01 736.001c-4.66699 0 -8.99902 1.00098 -12.999 3.00098c-7.33301 3.33301 -12.333 9 -15 17
s-2.33398 15.667 0.999023 23c0.666992 0.666992 3.5 5.66699 8.5 15s11.167 19.666 18.5 30.999c13.333 20.667 25.166 35.5 35.499 44.5s21.166 13.5 32.499 13.5c19.333 0 41.666 -18.333 66.999 -55c7.33301 -11.333 13.5 -21.5 18.5 -30.5s7.83301 -13.833 8.5 -14.5
c3.33301 -7.33301 3.83301 -14.833 1.5 -22.5s-7.16602 -13.5 -14.499 -17.5s-14.833 -4.66699 -22.5 -2s-13.5 7.66699 -17.5 15c-1.33301 3.33301 -3.33301 6.66602 -6 9.99902l-14 23c-4.66699 7.33301 -8.66699 13.333 -12 18s-6.33301 8.33398 -9 11.001
c-4.66699 -4.66699 -12 -15 -22 -31c-3.33301 -4.66699 -6.16602 -9 -8.49902 -13s-4.16602 -7.66699 -5.49902 -11c-2 -4 -3.66699 -7.66699 -5 -11c-6.66699 -10.667 -15.667 -16 -27 -16z" />
    <glyph glyph-name="Otilde" unicode="&#xd5;" horiz-adv-x="583" 
d="M271 -2c-58 0 -107.327 23.001 -147.994 69.001c-34.667 39.333 -58 91.333 -70 156c-8.66699 44 -11.334 89.167 -8.00098 135.5s12.666 90.166 27.999 131.499c16 44.667 37.667 83.334 65 116.001c31.333 36 66.666 62 105.999 78c24.667 9.33301 48 14 70 14
c31.333 0 60.333 -8.33301 87 -25c23.333 -14.667 45.333 -36.334 66 -65.001c17.333 -25.333 31.666 -54.333 42.999 -87s19.666 -67.667 24.999 -105c5.33301 -44.667 5.66602 -88.167 0.999023 -130.5s-14.334 -81.5 -29.001 -117.5
c-36.667 -86.667 -95 -140.667 -175 -162c-21.333 -5.33301 -41.666 -8 -60.999 -8zM314.006 638.001c-16 0 -31.6631 -3.33301 -46.9961 -10c-19.333 -8 -36.5 -18 -51.5 -30s-28 -25.333 -39 -40s-20.333 -29.5 -28 -44.5s-13.834 -29.5 -18.501 -43.5
c-13.333 -36.667 -21.5 -75.5 -24.5 -116.5s-0.833008 -80.833 6.5 -119.5c2 -10 6 -24.833 12 -44.5s15 -39.334 27 -59.001s27.667 -36.667 47 -51s43.666 -21.5 72.999 -21.5c14.667 0 30 2 46 6c34 8.66699 62.167 25 84.5 49s39.833 52 52.5 84s20.667 66.333 24 103
s2.66602 72.667 -2.00098 108c-4 28 -10.333 55.667 -19 83s-19.834 51.833 -33.501 73.5s-29.667 39.334 -48 53.001s-38.833 20.5 -61.5 20.5zM193.01 724.001c-7.33301 0 -14.002 2.67188 -20.002 8.00488s-9.33301 11.666 -10 18.999s-0.833984 15.333 -0.500977 24
s1.33301 17.167 3 25.5s4.66699 16 9 23s10.166 12.833 17.499 17.5c8.66699 5.33301 17.834 8 27.501 8s19.5 -1.66699 29.5 -5s20.167 -8 30.5 -14l30.5 -18l19 -11.5c6 -3.66699 12 -6.83398 18 -9.50098c3.33301 -2 6 -3.33301 8 -4s3.66699 -1.33398 5 -2.00098
c0.666992 2.66699 1 10.667 1 24c-1.33301 8 0.833984 15.167 6.50098 21.5s12.5 9.83301 20.5 10.5c8.66699 0.666992 16 -1.83301 22 -7.5s9.33301 -12.5 10 -20.5c1.33301 -13.333 0.666016 -28 -2.00098 -44s-11 -28.667 -25 -38
c-12.667 -7.33301 -25.167 -9.5 -37.5 -6.5s-20.833 5.5 -25.5 7.5c-8.66699 3.33301 -17.167 7.66602 -25.5 12.999s-17.166 10.666 -26.499 15.999l-19.5 11.5l-18.5 10.5c-4 1.33301 -7.33301 2.5 -10 3.5s-4.66699 1.83301 -6 2.5
c-0.666992 -2.66699 -1.16699 -6.5 -1.5 -11.5s-0.166016 -12.167 0.500977 -21.5c0.666992 -8.66699 -1.66602 -16 -6.99902 -22s-12.333 -9.33301 -21 -10h-2z" />
    <glyph glyph-name="Odieresis" unicode="&#xd6;" horiz-adv-x="583" 
d="M271 -2c-58 0 -107.327 23.001 -147.994 69.001c-34.667 39.333 -58 91.333 -70 156c-8.66699 44 -11.334 89.167 -8.00098 135.5s12.666 90.166 27.999 131.499c16 44.667 37.667 83.334 65 116.001c31.333 36 66.666 62 105.999 78c24.667 9.33301 48 14 70 14
c31.333 0 60.333 -8.33301 87 -25c23.333 -14.667 45.333 -36.334 66 -65.001c17.333 -25.333 31.666 -54.333 42.999 -87s19.666 -67.667 24.999 -105c5.33301 -44.667 5.66602 -88.167 0.999023 -130.5s-14.334 -81.5 -29.001 -117.5
c-36.667 -86.667 -95 -140.667 -175 -162c-21.333 -5.33301 -41.666 -8 -60.999 -8zM314.006 638.001c-16 0 -31.6631 -3.33301 -46.9961 -10c-19.333 -8 -36.5 -18 -51.5 -30s-28 -25.333 -39 -40s-20.333 -29.5 -28 -44.5s-13.834 -29.5 -18.501 -43.5
c-13.333 -36.667 -21.5 -75.5 -24.5 -116.5s-0.833008 -80.833 6.5 -119.5c2 -10 6 -24.833 12 -44.5s15 -39.334 27 -59.001s27.667 -36.667 47 -51s43.666 -21.5 72.999 -21.5c14.667 0 30 2 46 6c34 8.66699 62.167 25 84.5 49s39.833 52 52.5 84s20.667 66.333 24 103
s2.66602 72.667 -2.00098 108c-4 28 -10.333 55.667 -19 83s-19.834 51.833 -33.501 73.5s-29.667 39.334 -48 53.001s-38.833 20.5 -61.5 20.5zM218.01 758.001c-6 4.66699 -9.99902 12.333 -11.999 23c-0.666992 10 2.16602 18.667 8.49902 26s14.5 11.333 24.5 12h3
c10 0 17.667 -3 23 -9c6.66699 -5.33301 10.667 -13 12 -23s-1.16699 -18.667 -7.5 -26s-14.5 -11.333 -24.5 -12h-3c-9.33301 0 -17.333 3 -24 9zM316.011 757c-6 4.66699 -9.99902 12.333 -11.999 23c-0.666992 10 2.16602 18.667 8.49902 26s14.5 11.333 24.5 12h3
c10 0 17.667 -3 23 -9c6.66699 -5.33301 10.667 -13 12 -23s-1.16699 -18.667 -7.5 -26s-14.5 -11.333 -24.5 -12h-3c-9.33301 0 -17.333 3 -24 9z" />
    <glyph glyph-name="Oslash" unicode="&#xd8;" horiz-adv-x="583" 
d="M180 -2c-4.66699 0 -8.32617 1 -10.9932 3c-8 3.33301 -13.667 8.5 -17 15.5s-3.33301 14.5 0 22.5c-9.33301 7.33301 -19 16.666 -29 27.999c-34.667 39.333 -58 91.333 -70 156c-8.66699 44 -11.334 89.167 -8.00098 135.5s12.666 90.166 27.999 131.499
c16 44.667 37.667 83.334 65 116.001c31.333 36 66.666 62 105.999 78c24.667 9.33301 48 14 70 14c11.333 0 22.166 -1.16699 32.499 -3.5s20.833 -5.5 31.5 -9.5c3.33301 5.33301 8.16602 9.16602 14.499 11.499s12.833 2.5 19.5 0.5c8 -2.66699 13.833 -7.66699 17.5 -15
s4.5 -14.666 2.5 -21.999l-3 -9c12.667 -11.333 25.334 -25.666 38.001 -42.999c17.333 -25.333 31.666 -54.333 42.999 -87s19.666 -67.667 24.999 -105c5.33301 -44.667 5.66602 -88.167 0.999023 -130.5s-14.334 -81.5 -29.001 -117.5
c-36.667 -86.667 -95 -140.667 -175 -162c-21.333 -5.33301 -41.666 -8 -60.999 -8c-24 0 -46.333 4 -67 12c-6 -8 -14 -12 -24 -12zM314.008 638c-16 0 -31.666 -3.33301 -46.999 -10c-19.333 -8 -36.5 -18 -51.5 -30s-28 -25.333 -39 -40s-20.333 -29.5 -28 -44.5
s-13.834 -29.5 -18.501 -43.5c-13.333 -36.667 -21.5 -75.5 -24.5 -116.5s-0.833008 -80.833 6.5 -119.5c1.33301 -6.66699 3.33301 -15.5 6 -26.5s6.5 -22.667 11.5 -35s11.167 -25 18.5 -38s16.333 -24.833 27 -35.5c32 80.667 63 164.167 93 250.5
s60.333 178.833 91 277.5c-14.667 7.33301 -29.667 11 -45 11zM271.009 58c14.667 0 30.001 2.00195 46.001 6.00195c34 8.66699 62.167 25 84.5 49s39.833 52 52.5 84s20.667 66.333 24 103s2.66602 72.667 -2.00098 108c-4.66699 32.667 -12.667 64.667 -24 96
s-25.666 58.333 -42.999 81c-30.667 -96.667 -60.834 -187.334 -90.501 -272.001s-60.167 -167.334 -91.5 -248.001c6.66699 -2 13.667 -3.66699 21 -5s15 -2 23 -2z" />
    <glyph glyph-name="Ugrave" unicode="&#xd9;" horiz-adv-x="489" 
d="M241 -1c-34.667 0 -65.3359 13.333 -92.0029 40c-34 32.667 -59.333 87 -76 163c-6 29.333 -11.167 61.333 -15.5 96s-7.16602 72.334 -8.49902 113.001c-1.33301 34 -1.83301 66.5 -1.5 97.5s1 58.5 2 82.5s2 43.167 3 57.5s1.5 22.166 1.5 23.499
c0.666992 8 4.16699 14.833 10.5 20.5s13.5 7.83398 21.5 6.50098c8.66699 -0.666992 15.667 -4.16699 21 -10.5s7.66602 -13.5 6.99902 -21.5l-1.5 -21c-1 -14 -2 -32.833 -3 -56.5s-1.66699 -50.667 -2 -81s0.166992 -62.166 1.5 -95.499
c2.66699 -76.667 10.334 -142.667 23.001 -198c14 -64 33.667 -108.667 59 -134c16.667 -16 35.667 -23 57 -21c24.667 2 46 14 64 36c22.667 28 40 69.5 52 124.5s18.667 122.5 20 202.5c0.666992 30.667 0.333984 60 -0.999023 88s-2.66602 52.667 -3.99902 74
s-2.66602 38.333 -3.99902 51s-2 19.334 -2 20.001c-1.33301 8 0.666992 15.167 6 21.5s12 10.166 20 11.499c8.66699 1.33301 16 -0.666992 22 -6s9.66699 -12 11 -20c0 -1.33301 0.833008 -8.5 2.5 -21.5s3.16699 -30.333 4.5 -52s2.66602 -46.834 3.99902 -75.501
s1.66602 -59 0.999023 -91c-3.33301 -176.667 -31.666 -298.334 -84.999 -365.001c-28.667 -34.667 -63.667 -54 -105 -58c-2.66699 -0 -5 -0.166992 -7 -0.5s-4 -0.5 -6 -0.5zM289.998 734c-8 0 -14.332 2.33398 -18.999 7.00098l-28.5 23.5
c-8.33301 7 -16 14.167 -23 21.5s-14 15.166 -21 23.499s-14.5 18.166 -22.5 29.499c-5.33301 6.66699 -7.33301 14 -6 22s5.66602 14.333 12.999 19c6.66699 5.33301 14 7.33301 22 6s14.333 -5.33301 19 -12l21 -27c6 -7.33301 12.167 -14.166 18.5 -20.499
s13 -12.5 20 -18.5l25.5 -21c6 -5.33301 9.5 -12 10.5 -20s-1.16699 -15.333 -6.5 -22c-6 -7.33301 -13.667 -11 -23 -11z" />
    <glyph glyph-name="Uacute" unicode="&#xda;" horiz-adv-x="489" 
d="M241 -1c-34.667 0 -65.3359 13.333 -92.0029 40c-34 32.667 -59.333 87 -76 163c-6 29.333 -11.167 61.333 -15.5 96s-7.16602 72.334 -8.49902 113.001c-1.33301 34 -1.83301 66.5 -1.5 97.5s1 58.5 2 82.5s2 43.167 3 57.5s1.5 22.166 1.5 23.499
c0.666992 8 4.16699 14.833 10.5 20.5s13.5 7.83398 21.5 6.50098c8.66699 -0.666992 15.667 -4.16699 21 -10.5s7.66602 -13.5 6.99902 -21.5l-1.5 -21c-1 -14 -2 -32.833 -3 -56.5s-1.66699 -50.667 -2 -81s0.166992 -62.166 1.5 -95.499
c2.66699 -76.667 10.334 -142.667 23.001 -198c14 -64 33.667 -108.667 59 -134c16.667 -16 35.667 -23 57 -21c24.667 2 46 14 64 36c22.667 28 40 69.5 52 124.5s18.667 122.5 20 202.5c0.666992 30.667 0.333984 60 -0.999023 88s-2.66602 52.667 -3.99902 74
s-2.66602 38.333 -3.99902 51s-2 19.334 -2 20.001c-1.33301 8 0.666992 15.167 6 21.5s12 10.166 20 11.499c8.66699 1.33301 16 -0.666992 22 -6s9.66699 -12 11 -20c0 -1.33301 0.833008 -8.5 2.5 -21.5s3.16699 -30.333 4.5 -52s2.66602 -46.834 3.99902 -75.501
s1.66602 -59 0.999023 -91c-3.33301 -176.667 -31.666 -298.334 -84.999 -365.001c-28.667 -34.667 -63.667 -54 -105 -58c-2.66699 -0 -5 -0.166992 -7 -0.5s-4 -0.5 -6 -0.5zM198.998 734c-9.33301 0 -16.999 3.66602 -22.999 10.999c-5.33301 6.66699 -7.5 14 -6.5 22
s4.5 14.667 10.5 20l25.5 21c7 6 13.667 12.167 20 18.5s12.5 13.166 18.5 20.499l21 27c4.66699 6.66699 11 10.667 19 12s15.333 -0.666992 22 -6c7.33301 -4.66699 11.666 -11 12.999 -19s-0.666992 -15.333 -6 -22c-8 -11.333 -15.5 -21.166 -22.5 -29.499
s-14 -16.166 -21 -23.499s-14.667 -14.5 -23 -21.5l-28.5 -23.5c-4.66699 -4.66699 -11 -7 -19 -7z" />
    <glyph glyph-name="Ucircumflex" unicode="&#xdb;" horiz-adv-x="489" 
d="M241 -1c-34.667 0 -65.3359 13.333 -92.0029 40c-34 32.667 -59.333 87 -76 163c-6 29.333 -11.167 61.333 -15.5 96s-7.16602 72.334 -8.49902 113.001c-1.33301 34 -1.83301 66.5 -1.5 97.5s1 58.5 2 82.5s2 43.167 3 57.5s1.5 22.166 1.5 23.499
c0.666992 8 4.16699 14.833 10.5 20.5s13.5 7.83398 21.5 6.50098c8.66699 -0.666992 15.667 -4.16699 21 -10.5s7.66602 -13.5 6.99902 -21.5l-1.5 -21c-1 -14 -2 -32.833 -3 -56.5s-1.66699 -50.667 -2 -81s0.166992 -62.166 1.5 -95.499
c2.66699 -76.667 10.334 -142.667 23.001 -198c14 -64 33.667 -108.667 59 -134c16.667 -16 35.667 -23 57 -21c24.667 2 46 14 64 36c22.667 28 40 69.5 52 124.5s18.667 122.5 20 202.5c0.666992 30.667 0.333984 60 -0.999023 88s-2.66602 52.667 -3.99902 74
s-2.66602 38.333 -3.99902 51s-2 19.334 -2 20.001c-1.33301 8 0.666992 15.167 6 21.5s12 10.166 20 11.499c8.66699 1.33301 16 -0.666992 22 -6s9.66699 -12 11 -20c0 -1.33301 0.833008 -8.5 2.5 -21.5s3.16699 -30.333 4.5 -52s2.66602 -46.834 3.99902 -75.501
s1.66602 -59 0.999023 -91c-3.33301 -176.667 -31.666 -298.334 -84.999 -365.001c-28.667 -34.667 -63.667 -54 -105 -58c-2.66699 -0 -5 -0.166992 -7 -0.5s-4 -0.5 -6 -0.5zM176.998 736c-4.66699 0 -8.99902 1.00098 -12.999 3.00098c-7.33301 3.33301 -12.333 9 -15 17
s-2.33398 15.667 0.999023 23c0.666992 0.666992 3.5 5.66699 8.5 15s11.167 19.666 18.5 30.999c13.333 20.667 25.166 35.5 35.499 44.5s21.166 13.5 32.499 13.5c19.333 0 41.666 -18.333 66.999 -55c7.33301 -11.333 13.5 -21.5 18.5 -30.5s7.83301 -13.833 8.5 -14.5
c3.33301 -7.33301 3.83301 -14.833 1.5 -22.5s-7.16602 -13.5 -14.499 -17.5s-14.833 -4.66699 -22.5 -2s-13.5 7.66699 -17.5 15c-1.33301 3.33301 -3.33301 6.66602 -6 9.99902l-14 23c-4.66699 7.33301 -8.66699 13.333 -12 18s-6.33301 8.33398 -9 11.001
c-4.66699 -4.66699 -12 -15 -22 -31c-3.33301 -4.66699 -6.16602 -9 -8.49902 -13s-4.16602 -7.66699 -5.49902 -11c-2 -4 -3.66699 -7.66699 -5 -11c-6.66699 -10.667 -15.667 -16 -27 -16z" />
    <glyph glyph-name="Udieresis" unicode="&#xdc;" horiz-adv-x="489" 
d="M241 -1c-34.667 0 -65.3359 13.333 -92.0029 40c-34 32.667 -59.333 87 -76 163c-6 29.333 -11.167 61.333 -15.5 96s-7.16602 72.334 -8.49902 113.001c-1.33301 34 -1.83301 66.5 -1.5 97.5s1 58.5 2 82.5s2 43.167 3 57.5s1.5 22.166 1.5 23.499
c0.666992 8 4.16699 14.833 10.5 20.5s13.5 7.83398 21.5 6.50098c8.66699 -0.666992 15.667 -4.16699 21 -10.5s7.66602 -13.5 6.99902 -21.5l-1.5 -21c-1 -14 -2 -32.833 -3 -56.5s-1.66699 -50.667 -2 -81s0.166992 -62.166 1.5 -95.499
c2.66699 -76.667 10.334 -142.667 23.001 -198c14 -64 33.667 -108.667 59 -134c16.667 -16 35.667 -23 57 -21c24.667 2 46 14 64 36c22.667 28 40 69.5 52 124.5s18.667 122.5 20 202.5c0.666992 30.667 0.333984 60 -0.999023 88s-2.66602 52.667 -3.99902 74
s-2.66602 38.333 -3.99902 51s-2 19.334 -2 20.001c-1.33301 8 0.666992 15.167 6 21.5s12 10.166 20 11.499c8.66699 1.33301 16 -0.666992 22 -6s9.66699 -12 11 -20c0 -1.33301 0.833008 -8.5 2.5 -21.5s3.16699 -30.333 4.5 -52s2.66602 -46.834 3.99902 -75.501
s1.66602 -59 0.999023 -91c-3.33301 -176.667 -31.666 -298.334 -84.999 -365.001c-28.667 -34.667 -63.667 -54 -105 -58c-2.66699 -0 -5 -0.166992 -7 -0.5s-4 -0.5 -6 -0.5zM268.998 757c-6 4.66699 -9.99902 12.333 -11.999 23c-0.666992 10 2.16602 18.667 8.49902 26
s14.5 11.333 24.5 12h3c10 0 17.667 -3 23 -9c6.66699 -5.33301 10.667 -13 12 -23s-1.16699 -18.667 -7.5 -26s-14.5 -11.333 -24.5 -12h-3c-9.33301 0 -17.333 3 -24 9zM170.999 757.999c-6 4.66699 -9.99902 12.333 -11.999 23c-0.666992 10 2.16602 18.667 8.49902 26
s14.5 11.333 24.5 12h3c10 0 17.667 -3 23 -9c6.66699 -5.33301 10.667 -13 12 -23s-1.16699 -18.667 -7.5 -26s-14.5 -11.333 -24.5 -12h-3c-9.33301 0 -17.333 3 -24 9z" />
    </font>
</defs>
</svg>
